Сегодня идет свободное скачивание без начисления Download

Остин и Элли / Austin & Ally [Сезон 1, серии 1-5, 7-13, 15 (19)] (2011) WEB-DLRip (Обновляемая)

Ответить на тему
 
Автор
Сообщение

UndegraundMen ®

Стаж: 5 лет 7 месяцев

Сообщений: 25860

Торрент-статистика

Пост 12-Июл-2013 09:02

[Цитировать]

Остин и Элли / Austin & Ally [Сезон 1, серии 1-5,7-13, 15 (19)] (2011) WEB-DLRip (Обновляемая)- Русское название: Остин и Элли
Оригинальное название: Austin & Ally
Год выпуска: 2011
Жанр: Семейный, Комедия
Перевод: Дублированный (Disney Channel)

Режиссер: Шелли Дженсен
Актеры: Росс Линч, Лора Морано, Рэйни Родригез, Кэлем Ворси
Описание фильма:
Сериал повествует о жизни певца Остина Муна и молодом, но робком композиторе Элли Доусон. С помощью Остина, песня, написанная Элли выходит в сеть и становится веб-сенсацией. Друзья решили объединить усилия и завоевать музыкальный рынок. Их поддерживают друзья Дез и Триш.
Продолжительность: Серия ~ 00:22:00
Качество видео: WEB-DLRip
Сэмпл:
Видео: XviD, 720x400 (1.80:1), 23.976 fps, ~2000 kbps avg, 0.300 bit/pixel
Аудио 1: Audio Coding 3, 48000 Hz, 2 ch, 192 kbps, [RUS]
Аудио 2: Audio Coding 3, 48000 Hz, 6 ch, 384 kbps, [ENG]
Обновления:
12.07.13 Добавлена 8, 9, 11, 12, 15 серия

Внимание! Раздача ведётся путём добавления новых серий!

Внимание! Раздача ведётся путём добавления новых серий; при каждом добавлении создаётся новый торрент. Чтобы начать докачку новой серии, пользователям необходимо сделать следующее:
(1) остановить скачивание,
(2) удалить старый торрент у себя из клиента (старые серии удалять не надо),
(3) скачать новый торрент и запустить его у себя в клиенте вместо старого, при этом указать клиенту путь в старую папку куда и должно происходить скачивание новых серий.
Ваш клиент при этом должен произвести хеширование (проверку) старой папки (если не производит сам - помогите ему сделать это), и будет докачивать только те серии которых у вас ещё нет. Старые серии при этом не удаляются, а продолжают раздаваться!
Eсли вы уже удалили старые серии, то предотвратить повторную закачку старых серий можно, отжав галочку в соответсвующих местах при запуске нового торрента.

MI

Общее
Полное имя : E:\Закачки\Austin.&.Ally.S01.WEB-DL\Austin.&.Ally.S01E01.Rockers.&.Writers.WEB-DL.avi
Формат : AVI
Формат/Информация : Audio Video Interleave
Размер файла : 496 Мбайт
Продолжительность : 26 м.
Общий поток : 2653 Кбит/сек
Программа кодирования : VirtualDubMod 1.5.10.2 (build 2542/release)
Библиотека кодирования : VirtualDubMod build 2542/release
Видео
Идентификатор : 0
Формат : MPEG-4 Visual
Профиль формата : Advanced Simple@L5
Параметр BVOP формата : 2
Параметр QPel формата : Нет
Параметр GMC формата : Без точки перехода
Параметр матрицы формата : Default (H.263)
Идентификатор кодека : XVID
Идентификатор кодека/Подсказка : XviD
Продолжительность : 26 м.
Битрейт : 2063 Кбит/сек
Ширина : 720 пикселей
Высота : 400 пикселей
Соотношение сторон : 16:9
Частота кадров : 23,976 кадра/сек
Цветовое пространство : YUV
Субдискретизация насыщенности : 4:2:0
Битовая глубина : 8 бит
Тип развёртки : Прогрессивная
Метод сжатия : С потерями
Бит/(Пиксели*Кадры) : 0.299
Размер потока : 386 Мбайт (78%)
Библиотека кодирования : XviD 1.2.1 (UTC 2008-12-04)
Аудио #1
Идентификатор : 1
Формат : AC-3
Формат/Информация : Audio Coding 3
Расширение режима : CM (complete main)
Параметр Endianness формата : Big
Идентификатор кодека : 2000
Продолжительность : 26 м.
Вид битрейта : Постоянный
Битрейт : 192 Кбит/сек
Каналы : 2 канала
Расположение каналов : Front: L R
Частота : 48,0 КГц
Битовая глубина : 16 бит
Метод сжатия : С потерями
Размер потока : 35,9 Мбайт (7%)
Выравнивание : Разделение по промежуткам
Продолжительность промежутка : 42 мс. (1,00 видеокадр)
Время предзагрузки промежутка : 500 мс.
Аудио #2
Идентификатор : 2
Формат : AC-3
Формат/Информация : Audio Coding 3
Расширение режима : CM (complete main)
Параметр Endianness формата : Big
Идентификатор кодека : 2000
Продолжительность : 26 м.
Вид битрейта : Постоянный
Битрейт : 384 Кбит/сек
Каналы : 6 каналов
Расположение каналов : Front: L C R, Side: L R, LFE
Частота : 48,0 КГц
Битовая глубина : 16 бит
Метод сжатия : С потерями
Размер потока : 71,8 Мбайт (14%)
Выравнивание : Разделение по промежуткам
Продолжительность промежутка : 42 мс. (1,00 видеокадр)
Время предзагрузки промежутка : 500 мс.
Скриншоты:
       
Время раздачи: Будни с 8:00-11:00, с 18:30-21:00
Вне форума [Профиль] [ЛС]
Показать сообщения:    
Ответить на тему

Текущее время: Сегодня 03:25

Часовой пояс: GMT + 3



Вы не можете начинать темы
Вы не можете отвечать на сообщения
Вы не можете редактировать свои сообщения
Вы не можете удалять свои сообщения
Вы не можете голосовать в опросах
Вы не можете прикреплять файлы к сообщениям
Вы не можете скачивать файлы