Сегодня идет свободное скачивание без начисления Download

Волчонок: «Изношенный» / Teen Wolf: «Frayed» (Сезон 3, серия 5) [2013] WEB-DL [H.264/1080p] (RG.Paravozik, Original, Английские субтитры)

Ответить на тему
 
Автор
Сообщение

UndegraundMen ®

Стаж: 5 лет 8 месяцев

Сообщений: 25860

Торрент-статистика

Пост 11-Июл-2013 09:00

[Цитировать]

Волчонок / Teen Wolf (Сезон 3, серия 5) [2013]
WEB-DL [H.264/1080p] (RG.Paravozik, Original, Английские субтитры)
- Год выпуска: 2013
Жанр: Триллер, Фэнтези, Драма
Перевод:
RG. Paravozik - Многоголосый закадровый, любительский
Вид субтитров: Вшитые отключаемые
Язык субтитров: Английские

Дата мировой премьеры: 01.07.2013
Режиссер: Роберт Холл
Актеры: Тайлер Пози (Скотт МакКолл), Дилан О’Брайен (Стайлз Стилински), Кристал Рид (Эллисон Арджент), Холлэнд Роден (Лидия Мартин), Тайлер Хёклин (Дерек Хейл), Дэниэл Шарман (Айзек Лейхи) и др.
Описание серии:
Скотт и команда Beacon Hills едут в автобусе, Эллисон и Лидия едут за ними, чтобы следить за Скоттом. Скотт страдает от неприятной раны, полученной от альфы Энниса в ночном сражении, которая не заживает. В один из моментов сражения, когда альфа Эннис наносит Скотту удар в грудь, на несколько секунд в Скотте пробуждается сила альфы. Но ночное сражение оставляет впечатление, что Дерек мертв и Скотт винит себя за это. Альфы несут раненого Энниса к доктору Дитону в надежде излечить его. Хоть Дитон и успешно вылечил его, Девкалион убивает Энниса. Стайлс останавливает автобус, чтобы Эллисон могла помочь Скотту. Она зашивает ему рану, позволяя ей зажить. Эллисон и Лидия оставшуюся часть пути едут со Скоттом и Стайлсом в автобусе. В это время, в Beacon Hills появляется раненый Дерек, пришедший к Дженнифер за помощью.
Продолжительность: 00:41:24
Формат: MKV
Качество видео: WEB-DL
Видеокодек: MPEG-4 AVC/H.264
Битрейт видео: ~4924 Kbps
Размер кадра: 1916x1076
Аудио:
  • RUS, AC3 2.0, 128 kbps, 48 kHz, RG.Paravozik
  • ENG, AC3 5.1, 384 kbps, 48 kHz, OriginalСкриншоты:
             

MediaInfo:

Код:
General
Unique ID                                : 224784220016474593670775134756956905619 (0xA91BDDB48169FFBFADC96C36C3D1A093)
Complete name                            : Teen.Wolf.S03E05.1080p.WEB-DL.H.264.Rus.Eng.mkv
Format                                   : Matroska
Format version                           : Version 4 / Version 2
File size                                : 1.60 GiB
Duration                                 : 41mn 24s
Overall bit rate                         : 5 546 Kbps
Encoded date                             : UTC 2013-07-10 14:59:22
Writing application                      : mkvmerge v6.3.0 ('You can't stop me!') built on Jun 27 2013 22:06:07
Writing library                          : libebml v1.3.0 + libmatroska v1.4.0
Video
ID                                       : 2
Format                                   : AVC
Format/Info                              : Advanced Video Codec
Format profile                           : [url=mailto:High@L4.0]High@L4.0[/url]
Format settings, CABAC                   : Yes
Format settings, ReFrames                : 4 frames
Codec ID                                 : V_MPEG4/ISO/AVC
Duration                                 : 41mn 24s
Bit rate                                 : 4 924 Kbps
Width                                    : 1 916 pixels
Height                                   : 1 076 pixels
Display aspect ratio                     : 16:9
Frame rate mode                          : Constant
Frame rate                               : 23.976 fps
Color space                              : YUV
Chroma subsampling                       : 4:2:0
Bit depth                                : 8 bits
Scan type                                : Progressive
Bits/(Pixel*Frame)                       : 0.100
Stream size                              : 1.42 GiB (89%)
Language                                 : English
Default                                  : Yes
Forced                                   : No
Color primaries                          : BT.709
Transfer characteristics                 : BT.709
Matrix coefficients                      : BT.709
Audio #1
ID                                       : 3
Format                                   : AC-3
Format/Info                              : Audio Coding 3
Mode extension                           : CM (complete main)
Format settings, Endianness              : Big
Codec ID                                 : A_AC3
Duration                                 : 41mn 24s
Bit rate mode                            : Constant
Bit rate                                 : 128 Kbps
Channel(s)                               : 2 channels
Channel positions                        : Front: L R
Sampling rate                            : 48.0 KHz
Bit depth                                : 16 bits
Compression mode                         : Lossy
Stream size                              : 37.9 MiB (2%)
Title                                    : RG.Paravozik
Language                                 : Russian
Default                                  : Yes
Forced                                   : No
Audio #2
ID                                       : 4
Format                                   : AC-3
Format/Info                              : Audio Coding 3
Mode extension                           : CM (complete main)
Format settings, Endianness              : Big
Codec ID                                 : A_AC3
Duration                                 : 41mn 24s
Bit rate mode                            : Constant
Bit rate                                 : 384 Kbps
Channel(s)                               : 6 channels
Channel positions                        : Front: L C R, Side: L R, LFE
Sampling rate                            : 48.0 KHz
Bit depth                                : 16 bits
Compression mode                         : Lossy
Stream size                              : 114 MiB (7%)
Title                                    : Original
Language                                 : English
Default                                  : No
Forced                                   : No
Text
ID                                       : 1
Format                                   : UTF-8
Codec ID                                 : S_TEXT/UTF8
Codec ID/Info                            : UTF-8 Plain Text
Language                                 : English
Default                                  : No
Forced                                   : No
Вне форума [Профиль] [ЛС]
Показать сообщения:    
Ответить на тему

Текущее время: Сегодня 18:15

Часовой пояс: GMT + 3



Вы не можете начинать темы
Вы не можете отвечать на сообщения
Вы не можете редактировать свои сообщения
Вы не можете удалять свои сообщения
Вы не можете голосовать в опросах
Вы не можете прикреплять файлы к сообщениям
Вы не можете скачивать файлы