Сегодня идет свободное скачивание без начисления Download

Ночь Страха: Дилогия / Fright Night: Dilogy (Том Холлэнд /Tom Holland) (Ужасы, Комедия, 1985-1988) [720p] HDTVRip

Ответить на тему
 
Автор
Сообщение

Omen ®

Стаж: 5 лет

Сообщений: 190529

Торрент-статистика

Пост 27-Авг-2011 16:09

[Цитировать]

Ночь Страха / Fright Night (1985)-
Русское название: Ночь Страха
Оригинальное название: Fright Night
Год выпуска: 1985
Жанр: Ужасы, Комедия-Описание фильма:
Юный поклонник ужастиков, Чарли, обнаруживает, что его сосед — вампир. Хуже того: соседу не нравится, что кто-то знает его тайну, поэтому жизнь Чарли под вопросом. Полностью отчаявшись, Чарли обращается за помощью к Питеру Винсенту, ведущему программы «Ночь страха», который якобы знает о вампирах все…-Режиссер: Том Холлэнд /Tom Holland
Актеры: Крис Сарандон, Уильям Рэгсдэйл, Аманда Бирс, Родди МакДауэлл, Стивен Джеффриз, Джонатан Старк-Продолжительность: 01:42:06
Перевод1: Авторский (одноголосый закадровый)(Кузнецов)
Перевод2: Авторский (одноголосый закадровый)(Russianguy27)
Перевод3: Авторский (одноголосый закадровый)(Володарский (с VHS))
Субтитры: английские- -Видеокодек: MPEG-4 AVC/H.264
Битрейт видео: ~5 732 Kbps
Размер кадра: 1280 x 544
Качество видео: HDTVRip
Аудиокодек: AC3
Битрейт аудио: 192 Kbps
Аудио1: Русский, AC3 2.0 192 Kbps 48,0 КГц (Кузнецов)
Аудио2: Русский, AC3 2.0 192 Kbps 48,0 КГц (Russianguy27)
Аудио3: Русский, AC3 1.0 128 Kbps 48,0 КГц (Володарский)
Аудио4: English, AC3 2.0 192 Kbps 48,0 КГц (Оригинал)
Субтитры: softsub (SRT)-Скриншоты:
       
         
-

MediaInfo


Format : Matroska
File size : 4.59 GiB
Duration : 1h 42mn
Overall bit rate : 6 439 Kbps
Movie name : Fright Night (1985)
Encoded date : UTC 2010-12-25 17:23:59
Writing application : mkvmerge v2.9.8 ('C'est le bon') built on Aug 13 2009 12:49:06
Writing library : libebml v0.7.7 + libmatroska v0.8.1
Video #1
ID : 1
Format : AVC
Format/Info : Advanced Video Codec
Format profile : High@L5.1
Format settings, CABAC : Yes
Format settings, ReFrames : 8 frames
Muxing mode : Container profile=Unknown@5.1
Codec ID : V_MPEG4/ISO/AVC
Duration : 1h 42mn
Bit rate : 5 732 Kbps
Width : 1 280 pixels
Height : 544 pixels
Display aspect ratio : 2.35:1
Frame rate : 25.000 fps
Color space : YUV
Chroma subsampling : 4:2:0
Bit depth : 8 bits
Scan type : Progressive
Bits/(Pixel*Frame) : 0.329
Stream size : 4.00 GiB (87%)
Title : Fright Night
Writing library : x264 core 57 svn-709C
Encoding settings : cabac=1 / ref=5 / deblock=1:-3:-3 / analyse=0x3:0x133 / me=umh / fpel_cmp=sad / subme=7 / me-prepass=0 / brdo=1 / mixed_ref=1 / me_range=16 / chroma_me=1 / trellis=0 / 8x8dct=1 / cqm=2 / deadzone=6,6 / chroma_qp_offset=0 / threads=6 / nr=0 / decimate=1 / mbaff=0 / bframes=3 / b_pyramid=1 / b_adapt=1 / b_bias=0 / direct=1 / wpredb=1 / bime=1 / keyint=250 / keyint_min=25 / scenecut=40(pre) / rc=2pass / bitrate=5732 / ratetol=1.0 / rceq='blurCplx^(1-qComp)' / qcomp=0.60 / qpmin=6 / qpmax=51 / qpstep=4 / cplxblur=20.0 / qblur=0.5 / ip_ratio=1.40 / pb_ratio=1.30 / aq=1:0.5:17.0
Language : English
Audio #2
ID : 2
Format : AC-3
Format/Info : Audio Coding 3
Mode extension : CM (complete main)
Codec ID : A_AC3
Duration : 1h 42mn
Bit rate mode : Constant
Bit rate : 192 Kbps
Channel(s) : 2 channels
Channel positions : Front: L R
Sampling rate : 48.0 KHz
Bit depth : 16 bits
Stream size : 140 MiB (3%)
Title : Kuznetsov AC3 2.0 192 kbps
Language : Russian
Audio #3
ID : 3
Format : AC-3
Format/Info : Audio Coding 3
Mode extension : CM (complete main)
Codec ID : A_AC3
Duration : 1h 42mn
Bit rate mode : Constant
Bit rate : 192 Kbps
Channel(s) : 2 channels
Channel positions : Front: L R
Sampling rate : 48.0 KHz
Bit depth : 16 bits
Stream size : 140 MiB (3%)
Title : Russianguy27 AC3 2.0 192 kbps
Language : Russian
Audio #4
ID : 4
Format : AC-3
Format/Info : Audio Coding 3
Mode extension : CM (complete main)
Codec ID : A_AC3
Duration : 1h 42mn
Bit rate mode : Constant
Bit rate : 128 Kbps
Channel(s) : 1 channel
Channel positions : Front: C
Sampling rate : 48.0 KHz
Bit depth : 16 bits
Stream size : 93.5 MiB (2%)
Title : Volodarskiy AC3 1.0 128 kbps
Language : Russian
Audio #5
ID : 5
Format : AC-3
Format/Info : Audio Coding 3
Mode extension : CM (complete main)
Codec ID : A_AC3
Duration : 1h 42mn
Bit rate mode : Constant
Bit rate : 192 Kbps
Channel(s) : 2 channels
Channel positions : Front: L R
Sampling rate : 48.0 KHz
Bit depth : 16 bits
Stream size : 140 MiB (3%)
Title : Original AC3 2.0 192 kbps
Language : English
Text #6
ID : 6
Format : UTF-8
Codec ID : S_TEXT/UTF8
Codec ID/Info : UTF-8 Plain Text
Language : English
-
-Ночь Страха 2 / Fright Night Part 2 (1988)-
Русское название: Ночь Страха 2
Оригинальное название: Fright Night Part 2
Год выпуска: 1988
Жанр: Ужасы, Комедия-Описание фильма:
В предыдущем фильме Чарли Брюстер и его сотоварищи уничтожили вампира, жившего по соседству. Но кто из них мог предположить, что у последнего есть сестра, которая теперь жаждет с ними расквитаться. Итак, Чарли встречает красавицу Реджину, перед чарами которой устоять сложно, вот и наш друг быстро под них подпадает. И теперь его подруге Алекс и охотнику на вампиров Питеру Винсенту предстоит освободить Чарли. Причем сделать это необходимо очень быстро, иначе вампирша превратит его в то, что он больше всего ненавидит - в вампира.-Режиссер: Томми Ли Уоллес / Tommy Lee Wallace
Актеры: Родди МакДауэлл, Уильям Рэгсдэйл, Трейси Линд, Джули Кармен, Джон Гриз, Расселл Кларк, Брайан Томпсон, Мерритт Бутрик-Продолжительность: 01:43:41
Перевод: Авторский (одноголосый закадровый) (Визгунов)
Субтитры: английские- -Видеокодек: MPEG-4 AVC/H.264
Битрейт видео: ~5 100 Kbps
Размер кадра: 1280 x 544
Качество видео: HDTVRip
Аудиокодек: AC3
Битрейт аудио: 192 Kbps
Аудио1: Русский, AC3 2.0 192 Kbps 48,0 КГц (Визгунов)
Аудио2: English, AC3 2.0 384 Kbps 48,0 КГц (Оригинал)
Субтитры: softsub (SRT)-Скриншоты:
       
         
-

MediaInfo


Format : Matroska
File size : 4.11 GiB
Duration : 1h 43mn
Overall bit rate : 5 678 Kbps
Encoded date : UTC 2010-12-22 14:48:57
Writing application : mkvmerge v2.9.8 ('C'est le bon') built on Aug 13 2009 12:49:06
Writing library : libebml v0.7.7 + libmatroska v0.8.1
Video #1
ID : 1
Format : AVC
Format/Info : Advanced Video Codec
Format profile : High@L4.0
Format settings, CABAC : Yes
Format settings, ReFrames : 6 frames
Muxing mode : Container profile=Unknown@4.0
Codec ID : V_MPEG4/ISO/AVC
Duration : 1h 43mn
Bit rate : 5 100 Kbps
Width : 1 280 pixels
Height : 544 pixels
Display aspect ratio : 2.35:1
Frame rate : 23.976 fps
Color space : YUV
Chroma subsampling : 4:2:0
Bit depth : 8 bits
Scan type : Progressive
Bits/(Pixel*Frame) : 0.305
Stream size : 3.61 GiB (88%)
Title : Fright Night 2
Writing library : x264 core 66 r1092 60f4cd8
Encoding settings : cabac=1 / ref=6 / deblock=1:-1:-1 / analyse=0x3:0x113 / me=umh / subme=7 / psy_rd=1.0:1.0 / mixed_ref=1 / me_range=16 / chroma_me=1 / trellis=2 / 8x8dct=1 / cqm=0 / deadzone=21,11 / chroma_qp_offset=-4 / threads=3 / nr=0 / decimate=1 / mbaff=0 / bframes=6 / b_pyramid=1 / b_adapt=2 / b_bias=0 / direct=3 / wpredb=1 / keyint=250 / keyint_min=25 / scenecut=40(pre) / rc=2pass / bitrate=5100 / ratetol=1.0 / qcomp=0.60 / qpmin=10 / qpmax=51 / qpstep=4 / cplxblur=20.0 / qblur=0.5 / vbv_maxrate=25000 / vbv_bufsize=14000 / ip_ratio=1.40 / pb_ratio=1.30 / aq=1:1.00
Audio #2
ID : 2
Format : AC-3
Format/Info : Audio Coding 3
Mode extension : CM (complete main)
Codec ID : A_AC3
Duration : 1h 43mn
Bit rate mode : Constant
Bit rate : 192 Kbps
Channel(s) : 2 channels
Channel positions : Front: L R
Sampling rate : 48.0 KHz
Bit depth : 16 bits
Stream size : 142 MiB (3%)
Title : Vizgunov AC3 2.0 192 kbps
Language : Russian
Audio #3
ID : 3
Format : AC-3
Format/Info : Audio Coding 3
Mode extension : CM (complete main)
Codec ID : A_AC3
Duration : 1h 43mn
Bit rate mode : Constant
Bit rate : 384 Kbps
Channel(s) : 2 channels
Channel positions : Front: L R
Sampling rate : 48.0 KHz
Bit depth : 16 bits
Stream size : 285 MiB (7%)
Title : Original AC3 2.0 384 kbps
Language : English
Text #4
ID : 4
Format : UTF-8
Codec ID : S_TEXT/UTF8
Codec ID/Info : UTF-8 Plain Text
Language : English


Последний раз редактировалось: Omen (2011-08-27 16:14), всего редактировалось 2 раз(а)
Вне форума [Профиль] [ЛС]
Показать сообщения:    
Ответить на тему

Текущее время: Сегодня 06:34

Часовой пояс: GMT + 3



Вы не можете начинать темы
Вы не можете отвечать на сообщения
Вы не можете редактировать свои сообщения
Вы не можете удалять свои сообщения
Вы не можете голосовать в опросах
Вы не можете прикреплять файлы к сообщениям
Вы не можете скачивать файлы