Сегодня идет свободное скачивание без начисления Download

Футурама / Futurama / Сезон: 7 / Серии: 14-15 из 26 (Рич Мур, Питер Аванзино, Брэт Хааланд / Rich Moore, Peter Avanzino, Bret Haaland) [2013, Фантастика, комедия, WEB-DL 720p] MVO (VO-production) + Original + Rus & Eng Subs

Ответить на тему
 
Автор
Сообщение

Omen ®

Стаж: 4 года 10 месяцев

Сообщений: 190643

Торрент-статистика

Пост 05-Июл-2013 17:39

[Цитировать]

Футурама / Futurama Страна: США
Жанр: Фантастика, комедия
Продолжительность: 00:21:00
Год выпуска: 2013
Перевод: Профессиональный (многоголосый закадровый)
Русские субтитры: есть
Режиссёр: Рич Мур, Питер Аванзино, Брэт Хааланд / Rich Moore, Peter Avanzino, Bret Haaland
Роли озвучивали: Билли Уэст, Кэти Сагал, Джон Ди Маджио, Тресс МакНилл, Морис ЛаМарш, Фил ЛаМарр, Лоурен Том, Дэвид Херман, Фрэнк Уэлкер, Бирн Оффатт
Описание: Всё начинается с того, когда разносчик пиццы по имени Фрай случайно оказывается замороженным в 1999 году и просыпается в будущем, спустя 1000 лет. Однако, новый мир, хотя и населенный роботами и инопланетянами, не так уж сильно отличается от старого. Фрай начинает работать в службе Планеты Экспресс, доставляющей посылки в различные уголки Вселенной. В будущем Фрай обретает новых друзей. Это: капитан корабля Лила – прекрасная инопланетянка, чью внешность не портит даже отсутствие второго глаза и которая легко справляется со сложной ситуацией, несмотря на наличие своих многочисленных проблем, Бендер – робот с человеческими пристрастиями, который пьет, курит и питает слабость к порнографии, профессор Фарнсворт – чокнутый ученый, чьи гениальные идеи нередко граничат с безумием...
Список серий:
14. Двухмерное шоссе / 2-D Blacktop
15. Очень бурная жизнь Фрая и Лилы / Fry and Leela's Big Fling
Доп. информация:
WEB-DL: CtrlHD
Синхронизация русской звуковой дорожки: FormatCevt
Синхронизация русских субтитров: Black_Scorpion_666
Семпл: http://multi-up.com/881434
Качество: WEB-DL 720p
Формат: MKV
Видео: AVC (H.264), 1280x718, 23.976 fps, ~ 3500 kbps avg, 0.156 bit/pixel
Аудио Rus: AC3, 48 kHz, 2 ch, ~ 256 kbps
Аудио Eng: AC3, 48 kHz, 6 ch, ~ 384 kbps
Субтитры: SRT [Русские, английские]

Подробные технические данные

GeneralUnique ID : 196379816697277763299425329793316621447 (0x93BD607F78A1832CA1C4317170B30C87)Complete name : H:\Мультфильмы\Futurama.S07B.720p.WEB-DL.DD5.1.H.264-CtrlHD\Futurama.S07E14.2-D.Blacktop.720p.WEB-DL.DD5.1.H.264-CtrlHD.mkvFormat : MatroskaFile size : 645 MiBDuration : 21mn 38sOverall bit rate : 4 169 KbpsEncoded date : UTC 2013-07-04 17:03:43Writing application : mkvmerge v6.3.0 ('You can't stop me!') built on Jun 28 2013 20:09:41Writing library : libebml v1.3.0 + libmatroska v1.4.0
VideoID : 1Format : AVCFormat/Info : Advanced Video CodecFormat profile : High@L3.1Format settings, CABAC : NoFormat settings, ReFrames : 2 framesFormat settings, GOP : M=2, N=47Codec ID : V_MPEG4/ISO/AVCDuration : 21mn 38sBit rate : 3 446 KbpsWidth : 1 280 pixelsHeight : 718 pixelsDisplay aspect ratio : 16:9Frame rate : 23.976 fpsColor space : YUVChroma subsampling : 4:2:0Bit depth : 8 bitsScan type : ProgressiveBits/(Pixel*Frame) : 0.156Stream size : 533 MiB (83%)Language : EnglishColor primaries : BT.709-5, BT.1361, IEC 61966-2-4, SMPTE RP177Transfer characteristics : BT.709-5, BT.1361Matrix coefficients : BT.709-5, BT.1361, IEC 61966-2-4 709, SMPTE RP177
Audio #1ID : 2Format : AC-3Format/Info : Audio Coding 3Mode extension : CM (complete main)Codec ID : A_AC3Duration : 21mn 38sBit rate mode : ConstantBit rate : 256 KbpsChannel(s) : 2 channelsChannel positions : Front: L RSampling rate : 48.0 KHzBit depth : 16 bitsCompression mode : LossyDelay relative to video : 17msStream size : 39.6 MiB (6%)Title : VO-productionLanguage : Russian
Audio #2ID : 3Format : AC-3Format/Info : Audio Coding 3Mode extension : CM (complete main)Codec ID : A_AC3Duration : 21mn 38sBit rate mode : ConstantBit rate : 384 KbpsChannel(s) : 6 channelsChannel positions : Front: L C R, Side: L R, LFESampling rate : 48.0 KHzBit depth : 16 bitsCompression mode : LossyStream size : 59.4 MiB (9%)Language : English
Text #1ID : 4Format : UTF-8Codec ID : S_TEXT/UTF8Codec ID/Info : UTF-8 Plain TextLanguage : Russian
Text #2ID : 5Format : UTF-8Codec ID : S_TEXT/UTF8Codec ID/Info : UTF-8 Plain TextLanguage : English

Скриншоты


Информация для личеров:

Внимание! Раздача ведётся путём добавления новых серий; при каждом добавлении создётся новый торрент. Чтобы начать докачку новой серии, пользователям необходимо сделать следующее: (1) остановить скачивание, (2) удалить старый торрент у себя из клиента (старые серии удалять не надо), (3) скачать новый торрент и запустить его у себя в клиенте вместо старого, при этом указать клиенту путь в старую папку куда и должно происходить скачивание новых серий.
Ваш клиент при этом должен произвести хеширование (проверку) старой папки (если не производит сам - помогите ему сделать это), и будет докачивать только те серии которых у вас ещё нет. Старые серии при этом не удаляются, а продолжают раздаваться!
Eсли вы уже удалили старые серии, то предотвратить повторную закачку старых серий можно, отжав галочку в соответсвующих местах при запуске нового торрента. По возможности, желательно не удалять старые серии как можно дольше чтобы релизёр не столько продолжал раздавать старые серии, а смог сконцентрироваться на новых.
Вне форума [Профиль] [ЛС]
Показать сообщения:    
Ответить на тему

Текущее время: Сегодня 03:55

Часовой пояс: GMT + 3



Вы не можете начинать темы
Вы не можете отвечать на сообщения
Вы не можете редактировать свои сообщения
Вы не можете удалять свои сообщения
Вы не можете голосовать в опросах
Вы не можете прикреплять файлы к сообщениям
Вы не можете скачивать файлы