Сегодня идет свободное скачивание без начисления Download

Молодая мамаша / Pramface (2013) HDTVRip (Сезон 2 (полный) / Серии 7 из 7) ViruseProject

Ответить на тему
 
Автор
Сообщение

UndegraundMen ®

Стаж: 5 лет 8 месяцев

Сообщений: 25860

Торрент-статистика

Пост 05-Июл-2013 03:22

[Цитировать]

Молодая мамаша / Pramface (2013) HDTVRip (Сезон 2 (полный) / Серии 7 из 7) ViruseProject- Год выпуска: 2013
Страна: Великобритания
Жанр: комедия
Перевод: Многоголосый закадровый, любительский - ViruseProject
Автор перевода: Solncekleshka (Татьяна Романовская)
Озвучка: Solncekleshka (Татьяна Романовская), marviha (Марина Видякина), Lalusha (Алла Блаер), 48 kbps (Сергей Павловский ), Pro-Snip (Дмитрий Иванов ), IgVin (Игорь Головин)
Сведение звука: viruse (Виталий Емельянов)

Режиссер: Дэн Зефф, Бен Фуллер, Миша Мэнсон-Смит
Актеры: Шон Верей, Скарлет Джонсон, Ясмин Пейдж, Бен Кромптон, Брона Галлахер, Ангус Дейтон, Анна Чэнселлор, Дилан Эдвардс, Эмер Кенни, Карл Теобалд и др.
Описание фильма:
Подростки Джейми и Майк сдали все весенние экзамены и решили оторваться по полной на летних каникулах. А отрыв заключался в потере девственности, и тогда они решают пробраться на вечеринку к старшеклассникам, тем, кому уже по 18+. В общем, Джейми по чисто «пьяной» случайности удается таки совершить затеянное. И все было бы замечательно, если бы та девушка не залетела. И тут все началось…
Качество видео: HDTVRip
Продолжительность: 1 серия ~00:60:00, 2-7 серии по ~00:28:00
Видеокодек: XViD
Формат: AVI
Битрейт видео: ~1183 kb/s
Размер кадра: 720х400 (16:9)
Аудиокодек: MP3
Битрейт аудио: 128 kb/s, 2 ch. Сэмпл

MediaInfo

Общее
Полное имя : D:\Downloads\Молодая мамаша (Сезон 2) Pramface (2013) HDTVRip - ViruseProject\Pramface.S02E01.ViruseProject.avi
Формат : AVI
Формат/Информация : Audio Video Interleave
Размер файла : 554 Мбайт
Продолжительность : 58 м.
Общий поток : 1321 Кбит/сек
Программа кодирования : VirtualDubMod 1.5.10.2 (build 2540/release)
Библиотека кодирования : VirtualDubMod build 2540/release
Видео
Идентификатор : 0
Формат : MPEG-4 Visual
Профиль формата : Advanced Simple@L5
Параметр BVOP формата : 1
Параметр QPel формата : Нет
Параметр GMC формата : Без точки перехода
Параметр матрицы формата : Default (MPEG)
Идентификатор кодека : XVID
Идентификатор кодека/Подсказка : XviD
Продолжительность : 58 м.
Битрейт : 1183 Кбит/сек
Ширина : 720 пикселей
Высота : 400 пикселей
Соотношение сторон : 16:9
Частота кадров : 25,000 кадров/сек
Цветовое пространство : YUV
Субдискретизация насыщенности : 4:2:0
Битовая глубина : 8 бит
Тип развёртки : Прогрессивная
Метод сжатия : С потерями
Бит/(Пиксели*Кадры) : 0.164
Размер потока : 496 Мбайт (90%)
Библиотека кодирования : XviD 1.2.1 (UTC 2008-12-04)
Аудио
Идентификатор : 1
Формат : MPEG Audio
Версия формата : Version 1
Профиль формата : Layer 3
Идентификатор кодека : 55
Идентификатор кодека/Подсказка : MP3
Продолжительность : 58 м.
Вид битрейта : Постоянный
Битрейт : 128 Кбит/сек
Каналы : 2 канала
Частота : 48,0 КГц
Метод сжатия : С потерями
Размер потока : 53,6 Мбайт (10%)
Выравнивание : Соединение по промежуткам
Продолжительность промежутка : 40 мс. (1,00 видеокадр)
Время предзагрузки промежутка : 504 мс.
Библиотека кодирования : LAME3.98r
Настройки программы : -m s -V 4 -q 2 -lowpass 17 -b 128
Скриншоты:
         
Вне форума [Профиль] [ЛС]
Похожие темы
Форум Тема Автор Торрент Отв. Посл. сообщение
./templates/default/images/folder_dl.gif Архив Библиотека современной фантастики | Полный комплект | Издательство Молодая гвардия |[FB2] Omen
0 | 1

0 | 2935

8

2011-07-08 17:53
Omen Последнее
Показать сообщения:    
Ответить на тему

Текущее время: Сегодня 19:53

Часовой пояс: GMT + 3



Вы не можете начинать темы
Вы не можете отвечать на сообщения
Вы не можете редактировать свои сообщения
Вы не можете удалять свои сообщения
Вы не можете голосовать в опросах
Вы не можете прикреплять файлы к сообщениям
Вы не можете скачивать файлы