Сегодня идет свободное скачивание без начисления Download

Молокососы / Skins (2013) HDTVRip [Сезон 7, серии 1 из 6] [Кубик в кубе] (Обновляемая)

Ответить на тему
 
Автор
Сообщение

UndegraundMen ®

Стаж: 5 лет 5 месяцев

Сообщений: 25853

Торрент-статистика

Пост 04-Июл-2013 04:57

[Цитировать]

Молокососы / Skins (2013) HDTVRip [Сезон 7, серии 1 из 6]- Русское название: Молокососы
Оригинальное название: Skins
Год выпуска: 2013
Выпущено: Великобритания, Company Pictures, E4, Stormdog Films
Жанр: драма, комедия
Перевод: Двухголосый закадровый профессиональный (Кубик в кубе)
Субтитры: Отсутствуют
Сэмпл:
Режиссер: Саймон Мэсси, Эстер Кэмбелл, Дэниэл О’Хара
Актеры: Дакота Блу Ричардс, Александр Арнольд, Ник Леван, Вилл Мерик, Джесика Сула, Грейс Виолет
Описание фильма:
Главные герои сериала — подростки. Они устраивают вечеринки в чужих домах, угоняют машины, покупают в долг наркотики, отказываются от еды и ведут беспорядочную половую жизнь. Помимо типично подростковых проблем, родители героев, да и сами герои сталкиваются с проблемами глобального масштаба — конфликтами в семье, религиозными разногласиями, расовой непримиримостью и проблемой отцов и детей.
Продолжительность: ~00:48:00
Качество видео: HDTVRip
Видеокодек: XviD
Битрейт видео: ~1997 kbps
Размер кадра: 720x400
Аудиокодек: MP3 2.0
Битрейт аудио: 192 Kbps

MediaInfo

Код:
General
Complete name                  : Skins.s07e01.rus.avi
Format                         : AVI
Format/Info                    : Audio Video Interleave
File size                      : 759 MiB
Duration                       : 48mn 12s
Overall bit rate               : 2 202 Kbps
Writing application            : XviD4PSP 6.0 / 54.29.105
Video
ID                             : 0
Format                         : MPEG-4 Visual
Format profile                 : Advanced Simple@L5
Format settings, BVOP          : Yes
Format settings, QPel          : No
Format settings, GMC           : No warppoints
Format settings, Matrix        : Default (H.263)
Codec ID                       : XVID
Codec ID/Hint                  : XviD
Duration                       : 48mn 12s
Bit rate                       : 1 997 Kbps
Width                          : 720 pixels
Height                         : 400 pixels
Display aspect ratio           : 16:9
Frame rate                     : 25.000 fps
Color space                    : YUV
Chroma subsampling             : 4:2:0
Bit depth                      : 8 bits
Scan type                      : Progressive
Compression mode               : Lossy
Bits/(Pixel*Frame)             : 0.277
Stream size                    : 688 MiB (91%)
Writing library                : XviD 64
Audio
ID                             : 1
Format                         : MPEG Audio
Format version                 : Version 1
Format profile                 : Layer 3
Mode                           : Joint stereo
Mode extension                 : MS Stereo
Codec ID                       : 55
Codec ID/Hint                  : MP3
Duration                       : 48mn 12s
Bit rate mode                  : Constant
Bit rate                       : 192 Kbps
Channel(s)                     : 2 channels
Sampling rate                  : 48.0 KHz
Compression mode               : Lossy
Stream size                    : 66.2 MiB (9%)
Alignment                      : Aligned on interleaves
Interleave, duration           : 24 ms (0.60 video frame)
Writing library                : LAME3.99.4

Внимание! Раздача ведётся путём добавления новых серий

Внимание! Раздача ведётся путём добавления новых серий; при каждом добавлении создаётся новый торрент.
Чтобы начать докачку новой серии, пользователям необходимо сделать следующее:
1. Остановить скачивание;
2. Удалить старый торрент у себя из клиента (старые серии удалять не надо);
3. Скачать новый торрент и запустить его у себя в клиенте вместо старого, при этом указать клиенту путь в старую папку куда и должно происходить скачивание новых серий. Ваш клиент при этом должен произвести хеширование (проверку) старой папки и будет докачивать только те серии, которых у вас ещё нет. Старые серии при этом не удаляются, а продолжают раздаваться! Eсли вы уже удалили старые серии, то предотвратить повторную закачку старых серий можно, отжав галочку в соответствующих местах при запуске нового торрента.
-Скриншоты:
       
Вне форума [Профиль] [ЛС]
Показать сообщения:    
Ответить на тему

Текущее время: Сегодня 22:06

Часовой пояс: GMT + 3



Вы не можете начинать темы
Вы не можете отвечать на сообщения
Вы не можете редактировать свои сообщения
Вы не можете удалять свои сообщения
Вы не можете голосовать в опросах
Вы не можете прикреплять файлы к сообщениям
Вы не можете скачивать файлы