Сегодня идет свободное скачивание без начисления Download

Футурама / Futurama / Сезон: 7 / Серии: 14-16 из 26 (Мэтт Гроунинг / Matt Groening) [2013, Фантастика, комедия, WEB-DL 1080p] Rus (ISFF) Eng Subs

Ответить на тему
 
Автор
Сообщение

Omen ®

Стаж: 4 года 10 месяцев

Сообщений: 190643

Торрент-статистика

Пост 29-Июн-2013 14:51

[Цитировать]

Футурама / Futurama- Страна: США
Жанр: Фантастика, комедия
Продолжительность: 00:21:00
Год выпуска: 2013
Перевод: Субтитры: allsimpsons [ISFF]
Русские субтитры: есть
Режиссёр: Мэтт Гроунинг / Matt Groening
Роли озвучивали: Билли Уэст, Кейти Сэгал, Джон ДиМаджио, Фил ЛаМарр, Лоурэн Том и др.
Описание: Сериал начинается с того, что разносчик пиццы из Нью-Йорка Филипп Джей Фрай случайно, как это кажется на первый взгляд, был заморожен в криогенной камере ровно в 00 часов 00 минут 00 секунд 1 января 2000 года. Он был разморожен тысячу лет спустя, 31 декабря 2999 года, и обнаружил себя в городе будущего Нью-Нью-Йорке. Знакомясь со своей будущей коллегой Турангой Лилой, Фрай пытается избежать принудительного назначения на работу курьером, кем он и был в прошлой жизни, и внедрения ему карьерного чипа — микросхемы, вшиваемой под кожу и определяющей род занятий своего носителя. Лила, в это время работающая инспектором по раздаче профессий, догоняя Фрая, чтобы вживить ему чип, в результате выслушивания речей Фрая о его прошлой никчемной жизни курьером, отказывается от работы инспектора, которая ей не по душе, и вместе они находят очень дальнего потомка Фрая (его пра-пра-пра-…-пра-внучатого племянника) Хьюберта Фарнсворта — маразматичного 160-летнего гениального ученого-склеротика, который берет их на работу в свою небольшую компанию «Межпланетный экспресс», занимающуюся межгалактическими грузоперевозками, на должность курьера. «Межпланетный экспресс» — это маленький бизнес профессора, окупающий его гениальные, но иногда весьма сомнительные исследования и изобретения.
Список серий:
14. 7ACV15: Двухмерное шоссе | 2-D Blacktop
15. 7ACV17: Очень бурная жизнь Фрая и Лилы | Fry and Leela's Big Fling
16. 7ACV16: Ф... Планетянин | T:. The Terrestrial
WEB-DL: CtrlHD
Синхронизация рус. субтитров: Black_Scorpion_666
Качество: WEB-DL 1080p Sample
Формат: MKV
Видео: AVC (H.264) | 1912x1072p | 23.976 fps | ~4 834 Kbps | 0.098 bit/pix
Аудио: AC3 | 48KHz | 5.1 (6ch) | 384 kbps
Субтитры: ASS/SRT [Русские, Английские]

Доп. информация: для корректного отображения ass субтитров рекомендуется использовать MPC-BE или MPC-HC, для остальных плееров присутствую srt субтитры.
Синхронизация делалась по аудио дороге в Aegisub.

Подробные технические данные

GeneralУникальный идентификатор : 177509062000424896375637990839279386005 (0x858B00755A78D5788D76743F4CAF7D95)Полное имя : E:\VIDEOS\TV SHOWS\Futurama\Futurama.S07B.1080p.WEB-DL.DD5.1.H.264-BS666\Futurama.S07E14.2-D.Blacktop.1080p.WEB-DL.DD5.1.H.264-BS666.mkvФормат : MatroskaВерсия формата : Version 4 / Version 2Размер файла : 826 MiBПродолжительность : 21mn 38sОбщий поток : 5 335 KbpsДата кодирования : UTC 2013-06-22 13:08:26Программа кодирования : mkvmerge v6.2.0 ('Promised Land') built on Apr 28 2013 12:22:01Библиотека кодирования : libebml v1.3.0 + libmatroska v1.4.0Attachment : Yes / Yes / Yes / Yes
VideoИдентификатор : 1Формат : AVCФормат/Информация : Advanced Video CodecПрофиль формата : High@L4.0Параметр CABAC формата : YesПараметр ReFrames формата : 4 framesИдентификатор кодека : V_MPEG4/ISO/AVCПродолжительность : 21mn 38sБитрейт : 4 845 KbpsШирина : 1 912 pixelsВысота : 1 072 pixelsСоотношение сторон : 16:9Режим частоты кадров : ConstantЧастота кадров : 23.976 fpsЦветовое пространство : YUVСубдискретизация насыщенности : 4:2:0Битовая глубина : 8 bitsТип развёртки : ProgressiveБит/(Пиксели*Кадры) : 0.099Размер потока : 750 MiB (91%)Язык : EnglishDefault : YesForced : NoColor primaries : BT.709Transfer characteristics : BT.709Matrix coefficients : BT.709
AudioИдентификатор : 2Формат : AC-3Формат/Информация : Audio Coding 3Расширение режима : CM (complete main)Параметр Endianness формата : BigИдентификатор кодека : A_AC3Продолжительность : 21mn 38sВид битрейта : ConstantБитрейт : 384 KbpsКаналы : 6 channelsРасположение каналов : Front: L C R, Side: L R, LFEЧастота : 48.0 KHzБитовая глубина : 16 bitsМетод сжатия : LossyРазмер потока : 59.4 MiB (7%)Язык : EnglishDefault : YesForced : No
Text #1Идентификатор : 3Формат : ASSИдентификатор кодека : S_TEXT/ASSИдентификатор кодека/Информация : Advanced Sub Station AlphaМетод сжатия : LosslessЯзык : RussianDefault : YesForced : No
Text #2Идентификатор : 4Формат : UTF-8Идентификатор кодека : S_TEXT/UTF8Идентификатор кодека/Информация : UTF-8 Plain TextЯзык : RussianDefault : NoForced : No
Text #3Идентификатор : 5Формат : ASSИдентификатор кодека : S_TEXT/ASSИдентификатор кодека/Информация : Advanced Sub Station AlphaМетод сжатия : LosslessЯзык : EnglishDefault : NoForced : No
Text #4Идентификатор : 6Формат : UTF-8Идентификатор кодека : S_TEXT/UTF8Идентификатор кодека/Информация : UTF-8 Plain TextЯзык : EnglishDefault : NoForced : No

Скриншоты

Скриншоты с субтитрами

Вне форума [Профиль] [ЛС]
Показать сообщения:    
Ответить на тему

Текущее время: Сегодня 19:58

Часовой пояс: GMT + 3



Вы не можете начинать темы
Вы не можете отвечать на сообщения
Вы не можете редактировать свои сообщения
Вы не можете удалять свои сообщения
Вы не можете голосовать в опросах
Вы не можете прикреплять файлы к сообщениям
Вы не можете скачивать файлы