Today is a free download without charge Download

(Space Rock) Hawkwind - Дискография 1970-2012, FLAC/APE, lossless

Reply to topic
 
Author
Message

Omen ®

Longevity: 7 years 1 month

Posts: 181090

Торрент-статистика

Post 25-Jun-2013 20:43

[Quote]

Hawkwind - Дискография 1970-2012 Жанр: Space rock | Страна: UK
Аудио кодек: FLAC / APE | Тип рипа: image+.cue / tracks+.cue | Битрейт аудио: lossless
Продолжительность: 123 релиза (159 CD & EP)
-Спасибо за релизы: lizard king (1977, 2009 - Quark, Strangeness and Charm , 1978 - Hawklords - 25 Years On, 1980 - Live Seventy Nine, 1982, 1994 - Church of Hawkwind, 1985, 1992 - The Chronicle of the Black Sword, 1990 - Stasis (The UA Years 1971-1975), 1997 - Distant Horizons, 1998 - Sonic Boom Killers (Best Of Singles A's And B's 1970..80), 2001 - The Hawkwind EP ,2006 - Take Me to Your Future), erro (1993 - It Is The Business Of The Future To Be Dangerous, 1985 - The Chronicle Of The Black Sword (2009 remaster), 1979 - PXR5 (2009 remaster), 1976 - Astounding Sounds, Amazing Music (2009 remaster)), Yurahod (2010 Blood of the Earth), hamatai (1986 - Undisclosed Files Addendum, 1990 - Acid Daze - Volume 1&2), Monju35 (2009 - Levitation (3CD, Limited Edition, Remastered, Box Set)), rat24 (1979 - PXR5, 1986 - The Friday Rock Show Sessions, 1995 - Alien 4, Best Of Singles A's And B's from 1970 to 1980 - 1998, 1976 - Astounding Sounds, Amazing Music, 1981 - Sonic Attack, 1979 - Live Seventy Nine, 1993 - The Business Trip, 2001 - Yule Ritual), syren_aureola (2007 - The Space Ritual (Collector's Edition)), hatross01 (2000 - Spacebrock, 1988 - Zones, 1970 - Hawkwind), lanson (1975 - Warrior On The Edge Of Time), SONN1980 (1972 - Doremi Fasol Latido) Uncle Remus (1972 - BBC Radio 1 Live in Concert), Fragile59 (1992 - Electric Tepee, 1974 - Hall Of The Mountain Grill (remaster)), evghoul (1982 - Choose Your Masques), ВиниЛин (1982 - Choose Your Masques (Remaster 2010) 2CD), jingara (1985 - The Chronicle Of The Black Sword), cortazar (1977 - Quark, Strangeness and Charm)-Hawkwind - группа с сорокалетней историей. Изобретатели спейс-рока, ровесники и единомышленники Pink Floyd, вдохновители всей современной progressive & psychodelic рок-сцены. Одна из немногих прогрессив-групп 70-х годов, способствовавшая становлению и развитию панк-рока (в отличие от других представителей прогрессив- и арт-рок-сцены, выступавших со своей вычурной, сложной и витиеватой музыкой антагонистами сырого и непричесанного панковского саунда). Hawkwind названы "возможно, самой знаменитой андеграундной группой мира". Группа, творящая на стыке рока, металла, амбиента, электроники.
Официальная и архивная дискография коллектива насчитывает более ста релизов.

История обновлений


05.11.2010
Добавлены альбомы:
1979 - Live Seventy Nine
1981 - Sonic Attack (2010 remaster)
1985 - Bring Me the Head of Yuri Gagarin
1988 - The Xenon Codex (Remaster 2010)
1992 - California Brainstorm
1992 - The Friday Rock Show Sessions
1993 - Lord Of Light
1996 - Love in Space 2CD
1997 - The Ambient Anarchists 2CD
2008 - Spirit of the Age 1976-1984 3CD
2008 - The Dream Goes On 1985-1997 3CD
Добавлены сканы к альбому 1986 - Live Chronicles 2CD
11.11.2010
Заменены правильными рипами следующие альбомы:
1977 - Quark, Strangeness And Charm
1990 - Stasis. The UA Years 1971-1975
1994 - The Best Of Friends And Relations
2001 - The Hawkwind (EP)
Добавлены альбомы:
1993 - Decide Your Future (EP)
1995 - Friends and Relations The Rarities
1998 - The Elf & The Hawk
1999 - Collector Series Vol 1 - Complete '79 2CD
1999 - Golden Void 1969-1979 2CD
2000 - Weird Tapes 1 [Dave Brock, Sonic Assassins]
2000 - Weird Tapes 2 [Hawkwind Live+Hawklord's Studio]
2000 - Weird Tapes 3 [Free Festivals]
2000 - Weird Tapes 4 [Live '78]
2000 - Weird Tapes 5 [Live '76 & '77]
2000 - Weird Tapes 6 [Live 1970-73]
2000 - Weird Tapes 7 [Dave Brock, The Demos]
2006 - Weird Tapes 8 [Live 1966-1973]
2002 - Friends And Relations
2009 - 40th Anniversary Party Commemorative CD 2009
23.11.2010
Заменен правильным рипом альбом:
1985 - The Chronicle Of The Black Sword
Добавлены альбомы:
1997 - Live & Rare: Onward Flies the Bird
1998 - The Masters
26.12.2010
Добавлены альбомы:
1990 - Acid Daze - Volume 1
1990 - Acid Daze - Volume 2
1991 - Palace Springs
1996 - Love in Space 2CD (Remaster 2009)
1998 - Anthology 67-82 2CD
14.02.2011
Добавлены альбомы:
1987 - Out & Intake
1990 - Ridicule
1992 - Tales From Atom Henge. The Robert Calvert Years
1995 - Psychedelic Warriors - White Zone
1997 - Strange Daze 97 2CD
1998 - Exclusive Tribute CD The Pink Floyd Encyclopedia
23.03.2011
Добавлены альбомы:
1982 - Choose Your Masques (Remaster 2010) 2CD
1986 - The Collector Series: The Hawkwind Collection
1994 - In The Beginning
2000 - Family Tree
2010 - Blood Of The Earth (Limited Edition) 2CD
Заменен рипом с родного диска альбом 1995 - Psychedelic Warriors (Hawkwind) - White Zone
По просьбе soundmasta выложена книга Ledge of Darkness - приложение к 4-дисковому бокс-сету 1994 года 25 Years On
18.04.2012
Добавлены альбомы:
1993 - It Is The Business Of The Future To Be Dangerous 2CD (2012 Remaster)
2007 - Greasy Truckers Party 3CD
1982 - Church Of Hawkwind (2010 Remaster)
1990 - Space Bandits (2010 Remaster)
1992 - Electric Tepee (2009 Remaster)
1994 - The Business Trip (2011 Remaster)
1997 - Distant Horizons (2011 Remaster)
Заменен правильным рипом альбом 1994 - In The Begining
09.05.2012
Добавлены альбомы:
2008 - Out Of The Shadows
2011 - Leave No Star Unturned
2011 - Space Chase 1980-1985
2012 - Onward 2CD
25.07.2012
Добавлен альбом 1998 - In Your Area
25.06.2013
Добавлены альбомы:
1975 - Warrior On The Edge Of Time (Remastered original mix 2013) 2CD
1991 - Palace Springs (Remaster 2012) 2CD
2004 - Seasons Greetings From Deep Space (EP)
2012 - Hawklords - We Are One
2012 - Hawkwind Light Orchestra - Stellar Variations
Заменен рипом с фирменного диска альбом 1998 - Sonic Boom Killers: Best of Singles A's and B's 1970-1980, любезно предоставленный комрадом unclesandy, за что ему большое спасибо
Состав:
Dave Brock - guitar, vocals, synths
Mr. Dibs - bass
Tim Blake - keys, synths
Richard Chadwick - drums
Niall Hone - lead guitar, violin
Бывшие участники:
Lemmy - bass
Dik Mik - keys, synths
Terry Ollis - drums
Robert Calvert - vocals
Nik Turner - sax, flute
Simon King - drums
John Harrison - bass
Huw LLoyd-Langton - lead guitar

-

1970 - Hawkwind

Год издания диска: 1970
Издатель (лейбл): CEMA Special Markets
Номер по каталогу: S21-57658
Аудио кодек: FLAC (*.flac)
Тип рипа: image+.cue
Битрейт аудио: lossless
Продолжительность: 39:46
Наличие сканов в содержимом раздачи: да
Треклист:
01. Hurry on Sundown (5:00)
02. The Reason Is (3:31)
03. Be Yourself (8:08)
04. Paranoia - part 1 (1:10)
05. Paranoia - part 2 (4:10)
06. Seeing It as You Really Are (10:49)
07. Mirror of Illusion (6:59)

Лог создания рипа

Отчёт EAC об извлечении, выполненном 13. марта 2009, 19:17 для диска:Hawkwind / Hawkwind
Дисковод: SONY DVD RW DW-D26A Adapter: 1 ID: 0Режим чтения: Достоверный (C2: нет, Точный поток: да, Отключение кэша: да)Коррекция смещения при чтении: 12Способность читать области Lead-in и Lead-out : Нет
Выходной формат: Внутренние WAV-операции 44.100 Гц; 16 бит; стерео
Другие параметры: Заполнение пропущенных сэмплов тишиной : Да Удаление блоков с тишиной в начале и конце : Нет Встроенный Win32-интерфейс для Win NT/2000
Характеристики диапазона извлечения и сообщения об ошибкахВыбранный диапазон Имя файла E:\VIC\MUZON\ОБРАЗЫ\Hawkwind 1970\Hawkwind - Hawkwind.wav
Пиковый уровень 98.4 % Качество диапазона 100.0 % CRC 2CE22A57 Копирование... OK
Ошибок не произошло
Конец отчёта

Информация об альбоме

Hawkwind - дебютный альбом британской рок-группы Hawkwind, записанный весной и выпущенный в августе 1970 года лейблом Liberty. Для работы над альбомом Hawkwind пригласили в студию Дика Тейлора, гитариста Pretty Things, который, кроме того, выступил с группой на нескольких концертах. После нескольких безуспешных попыток воссоздать в студии концертное звучание, продюсер попросу попросил группу сыграть сет вживую.
Автором всех песен альбома был указан Дэйв Брок, что несколько удивило остальных участников, поскольку значительная их часть возникла в процессе джемминга. Начиная с 1996 года (когда вышел ремастеринг), авторами указываются все участники Hawkwind 1970 года.
Песенную основу альбома составили две композиции из раннего репертуара Дэйва Брока, «Hurry on Sundown» и «Mirror of Illision». Остальное пространство было заполнено отработанной в ходе концертов импровизацией под общим заголовком «Sunshine Special», разбитой на пять отдельных треков. На альбоме первая часть «Paranoia» длится около минут и завершается замедлением звука (как если бы остановили проигрыватель), затем продолжается на обороте альбома как «Paranoia (part 2)». (c) wiki

1970 - Hawkwind (Remaster 1996)

Год издания диска: 1970
Издатель (лейбл): EMI Records Ltd.
Номер по каталогу: 7243 5 30028 5 2 4
Аудио кодек: FLAC (*.flac)
Тип рипа: image+.cue Accurate rip
Битрейт аудио: lossless
Продолжительность: 57:49
Наличие сканов в содержимом раздачи: да
Треклист:
01. Hurry On Sundown (5:01)
02. The Reason Is? (3:30)
03. Be Yourself (8:07)
04. Paranoia (Part 1) (1:09)
05. Paranoia (Part 2) (4:09)
06. Seeing It As You Really Are (10:49)
07. Mirror Of Illusion (7:08)
08. Bring It On Home (3:18)
09. Hurry On Sundown [by Hawkwind Zoo] (5:06)
10. Kiss Of The Velvet Whip [by Hawkwind Zoo] (5:28)
11. Cymbaline [by Hawkwind Zoo] (4:04)

Лог создания рипа

Exact Audio Copy V0.99 prebeta 5 from 4. May 2009
EAC extraction logfile from 28. May 2010, 10:05
Hawkwind / Hawkwind
Used drive : _NEC DVD_RW ND-3520A Adapter: 1 ID: 0
Read mode : SecureUtilize accurate stream : YesDefeat audio cache : YesMake use of C2 pointers : No
Read offset correction : 48Overread into Lead-In and Lead-Out : NoFill up missing offset samples with silence : YesDelete leading and trailing silent blocks : NoNull samples used in CRC calculations : YesUsed interface : Installed external ASPI interface
Used output format : Internal WAV RoutinesSample format : 44.100 Hz; 16 Bit; Stereo
TOC of the extracted CD
Track | Start | Length | Start sector | End sector --------------------------------------------------------- 1 | 0:00.32 | 5:01.00 | 32 | 22606 2 | 5:01.32 | 3:30.33 | 22607 | 38389 3 | 8:31.65 | 8:06.67 | 38390 | 74906 4 | 16:38.57 | 1:09.23 | 74907 | 80104 5 | 17:48.05 | 4:09.30 | 80105 | 98809 6 | 21:57.35 | 10:48.50 | 98810 | 147459 7 | 32:46.10 | 7:08.07 | 147460 | 179566 8 | 39:54.17 | 3:17.53 | 179567 | 194394 9 | 43:11.70 | 5:05.42 | 194395 | 217311 10 | 48:17.37 | 5:27.73 | 217312 | 241909 11 | 53:45.35 | 4:04.22 | 241910 | 260231
Range status and errors
Selected range
Filename C:\blog\upload\005\Hawkwind - Hawkwind\Hawkwind - Hawkwind.wav
Peak level 100.0 % Range quality 99.9 % Copy CRC 3615BC3C Copy OK
No errors occurred
AccurateRip summary
Track 1 accurately ripped (confidence 18) [F5372469]Track 2 accurately ripped (confidence 18) [224EA003]Track 3 accurately ripped (confidence 18) [057B6933]Track 4 accurately ripped (confidence 18) [72DF6826]Track 5 accurately ripped (confidence 18) [FCC0AAA7]Track 6 accurately ripped (confidence 18) [C2BDBC99]Track 7 accurately ripped (confidence 18) [F20C9B2B]Track 8 accurately ripped (confidence 18) [294CC68A]Track 9 accurately ripped (confidence 18) [025556BD]Track 10 accurately ripped (confidence 18) [FA0E5A8E]Track 11 accurately ripped (confidence 18) [12A1EF3C]
All tracks accurately ripped
End of status report

1971 - In Search Of Space

Год издания диска: 1971
Издатель (лейбл): EMI Records Ltd.
Номер по каталогу: CDM 7 52025 2
Аудио кодек: FLAC (*.flac)
Тип рипа: image+.cue
Битрейт аудио: lossless
Продолжительность: 42:24
Наличие сканов в содержимом раздачи: да
Треклист:
01. You Shouldn't Do That (15:42)
02. You Know You're Only Dreaming (6:36)
03. Masters Of The Universe (6:17)
04. We Took The Wrong Step Years Ago (4:50)
05. Adjust Me (5:46)
06. Children Of The Sun (3:14)

Лог создания рипа

Exact Audio Copy V0.99 prebeta 5 from 4. May 2009
Отчёт EAC об извлечении, выполненном 10. октября 2010, 11:56
Hawkwind / In Search Of Space
Дисковод: ASUS DRW-2014L1T Adapter: 2 ID: 0
Режим чтения : ДостоверностьИспользование точного потока : ДаОтключение кэша аудио : ДаИспользование указателей C2 : Нет
Коррекция смещения при чтении : 6Способность читать области Lead-in и Lead-out : НетЗаполнение пропущенных сэмплов тишиной : ДаУдаление блоков с тишиной в начале и конце : НетПри вычислениях CRC использовались нулевые сэмплы : ДаИнтерфейс : Установленный внешний ASPI-интерфейс
Выходной формат : Внутренние WAV-операцииФормат сэмплов : 44.100 Гц; 16 бит; стереоСмещение при сжатии : 6
TOC извлечённого CD
Трек | Старт | Длительность | Начальный сектор | Конечный сектор --------------------------------------------------------------------- 1 | 0:00.00 | 15:41.40 | 0 | 70614 2 | 15:41.40 | 6:35.42 | 70615 | 100281 3 | 22:17.07 | 6:16.45 | 100282 | 128526 4 | 28:33.52 | 4:49.68 | 128527 | 150269 5 | 33:23.45 | 5:45.65 | 150270 | 176209 6 | 39:09.35 | 3:14.10 | 176210 | 190769
Характеристики диапазона извлечения и сообщения об ошибках
Выбранный диапазон
Имя файла C:\Users\Администратор\Desktop\Hawkwind - In Search Of Space (1971)\Hawkwind - In Search Of Space.wav
Пиковый уровень 100.0 % Качество диапазона 99.9 % CRC теста A8E92140 CRC копии A8E92140 Копирование... OK
Ошибок не произошло
Конец отчёта

Информация об альбоме

In Search of Space — второй студийный альбом британской рок-группы Hawkwind, записанный с продюсером Джорджем Кьянцем в Olympic Studios, и выпущенный United Artists Records в октябре 1971 года. Альбом поднялся до #18 в UK Albums Chart. Альбом открывает «You Shouldn’t Do That» — пространная композиция, которую группа исполняла на концертах еще с тех пор, когда в составе играл Кримбл. Последний утверждает, что должен был бы упомянут в числе соавторов, поскольку именно ему принадлежит базовая басовая партия.[5] Композиция была записана в ходе BBC-сессии в Maida Vale 19 мая 1971 года для программы Sounds of the Seventies. Бутлег-версия концерта появилась на бутлеге (The Text of Festival). Позже в более полном виде композиция была включена в альбом Roadhawks (1976), в различных версиях вошла в альбомы The Business Trip (1994) и Spaced Out in London (2004).
В «You Know You’re Only Dreaming» были использованы рифф и общая атмосферность композиции группы Steve Miller Band «Jackson-Kent Blues» (из альбома Number 5). Брок признавал, что творчество Милера оказало на него влияние[6] Эта композиция также была записана для сессий BBC Sounds of the Seventies и появлялась на нескольих концертных альбомах (The 1999 Party, 1974; The Business Trip, 1994).
«Master of the Universe» была написана Броком и тернером, хотя Андерсон считает, что и ему могли бы отдать должное, как сочинившему основной рифф. Этот трек — единственный в альбоме, посвященный космической теме; он был записан в ходе той же радиосессии Sounds of the Seventies. Песня надолго вошла в концертный репертуар группы и появилась на нескольких концертных альбомах.
«We Took the Wrong Step Years Ago» — композиция, исполненная на 12-струнной гитаре и переходящая в джемминг; её тема — «ошибочное» направление развития, избранное человеческим обществом.
«Adjust Me» — импровизация, в создании и записи которой приняли участие все музыканты группы.
«Children of the Sun» — гитарный трек, сначала акустический, затем поддержанный электрогитарой и басом; использованный здесь рифф был в те годы весьма распространен (Марк Болан, «Children Of The Revolution»).
Бонус-трек «Seven by Seven», вышел би-сайдом сингла «Silver Machine». (c) wiki

1971 - In Search Of Space (Remaster 1996)

Год издания диска: 1971
Издатель (лейбл): EMI Records Ltd.
Номер по каталогу: 5 30030 2 9
Аудио кодек: FLAC (*.flac)
Тип рипа: image+.cue
Битрейт аудио: lossless
Продолжительность: 57:42
Наличие сканов в содержимом раздачи: да
Треклист:
01. You Shouldn't Do That (15:42)
02. You Know You're Only Dreaming (6:38)
03. Master Of The Universe (6:17)
04. We Took The Wrong Step Years Ago (4:50)
05. Adjust Me (5:46)
06. Children Of The Sun (3:21)
07. Seven By Seven [Original Single Version, Bonus Track] (5:24)
08. Silver Machine [Original Single Version, Bonus Track] (4:40)
09. Born To Go [Live Single Version Edit, Bonus Track] (5:04)

Лог создания рипа

EAC extraction logfile from 17. June 2008, 15:07 for CDHawkwind / In Search Of Space
Used drive : LITE-ON DVDRW LH-20A1H Adapter: 0 ID: 0Read mode : Secure with NO C2, accurate stream, disable cacheRead offset correction : 6Overread into Lead-In and Lead-Out : No
Used output format : Internal WAV Routines 44.100 Hz; 16 Bit; Stereo
Other options : Fill up missing offset samples with silence : Yes Delete leading and trailing silent blocks : No Native Win32 interface for Win NT & 2000
Range status and errorsSelected range Filename C:\blog\upload\H71ISOS\Hawkwind - In Search Of Space\Hawkwind - In Search Of Space.wav
Peak level 97.4 % Range quality 100.0 % CRC 7537A01B Copy OK
No errors occured
End of status report

1972 - Doremi Fasol Latido

Год издания диска: 1972
Издатель (лейбл): One Way Records
Номер по каталогу: CDLL 57475
Аудио кодек: APE (*.ape)
Тип рипа: image+.cue
Битрейт аудио: lossless
Продолжительность: 41:49
Наличие сканов в содержимом раздачи: да
Треклист:
01. Brainstorm (11:37)
02. Space Is Deep (6:20)
03. One Change (0:50)
04. Lord Of Light (7:01)
05. Down Through The Night (3:08)
06. Time We Left This World Today (8:46)
07. The Watcher (4:07)

Лог создания рипа

EAC extraction logfile from 10. February 2006, 17:41 for CDhawkwind / doremi
Used drive : SAMSUNG CD-R/RW SW-248F Adapter: 0 ID: 0Read mode : Secure with NO C2, accurate stream, disable cacheRead offset correction : 12Overread into Lead-In and Lead-Out : No
Used output format : Internal WAV Routines 44.100 Hz; 16 Bit; Stereo
Other options : Fill up missing offset samples with silence : Yes Delete leading and trailing silent blocks : No Installed external ASPI interface
Range status and errorsSelected range Filename C:\Documents and Settings\Rat\My Documents\hawkwind - doremi.wav
Peak level 95.0 % Range quality 100.0 % CRC 78FFE103 Copy OK
No errors occured
End of status report

1972 - Doremi Fasol Latido (Remaster 1996)

Год издания диска: 1972
Издатель (лейбл): EMI
Номер по каталогу: 7243 5 30031 2 8
Аудио кодек: FLAC (*.flac)
Тип рипа: image+.cue
Битрейт аудио: lossless
Продолжительность: 59:06
Наличие сканов в содержимом раздачи: да
Треклист:
01. Brainstorm (11:33)
02. Space Is Deep (6:23)
03. One Change (0:51)
04. Lord Of Light (6:59)
05. Down Through The Night (3:05)
06. Time We Left This World Today (8:44)
07. The Watcher (4:17)
08. Urban Guerilla (3:42)
09. Brainbox Pollution (5:43)
10. Lord Of Light (Single Version Edit) (4:02)
11. Ejection (Previously Unreleased Version) (3:48)

Лог создания рипа

Exact Audio Copy V0.99 prebeta 3 from 28. July 2007
EAC extraction logfile from 2. December 2007, 12:53
Hawkwind / Doremi Fasol Latido
Used drive : HL-DT-STDVD-ROM GDR8162B Adapter: 1 ID: 0
Read mode : SecureUtilize accurate stream : YesDefeat audio cache : YesMake use of C2 pointers : No
Read offset correction : 102Overread into Lead-In and Lead-Out : NoFill up missing offset samples with silence : YesDelete leading and trailing silent blocks : NoNull samples used in CRC calculations : YesUsed interface : Installed external ASPI interface
Used output format : Monkey's Audio Lossless EncoderSelected bitrate : Fast Lossless CompressionQuality : HighAdd ID3 tag : YesCommand line compressor : C:\Programmi\Monkey's Audio\MAC.exe
TOC of the extracted CD
Track | Start | Length | Start sector | End sector --------------------------------------------------------- 1 | 0:00.32 | 11:33.33 | 32 | 52039 2 | 11:33.65 | 6:22.45 | 52040 | 80734 3 | 17:56.35 | 0:50.45 | 80735 | 84529 4 | 18:47.05 | 6:58.42 | 84530 | 115921 5 | 25:45.47 | 3:04.50 | 115922 | 129771 6 | 28:50.22 | 8:43.68 | 129772 | 169064 7 | 37:34.15 | 4:17.20 | 169065 | 188359 8 | 41:51.35 | 3:42.35 | 188360 | 205044 9 | 45:33.70 | 5:43.12 | 205045 | 230781 10 | 51:17.07 | 4:01.45 | 230782 | 248901 11 | 55:18.52 | 3:47.60 | 248902 | 265986
Range status and errors
Selected range
Filename F:\Lavori in corso\Hawkwind - Doremi Fasol Latido (Remastered)\Hawkwind - Doremi Fasol Latido (Remastered).wav
Peak level 98.1 % Range quality 100.0 % Copy CRC CF3F4523 Copy OK
No errors occurred
End of status report

1972 - BBC Radio 1 Live in Concert

Год издания диска: 1972
Издатель (лейбл): Windsong International
Номер по каталогу: WINDCD 007
Аудио кодек: FLAC (*.flac)
Тип рипа: image+.cue
Битрейт аудио: lossless
Продолжительность: 59:37
Наличие сканов в содержимом раздачи: да
Треклист:
01. Countdown[unlisted]/Born To Go (12:16)
02. Black Corridor[unlisted]/Seven By Seven (9:36)
03. Brainstorm (10:39)
04. Electronic #1[unlisted]/Master Of The Universe (9:53)
05. Paranoia/Earth Calling[unlisted] (9:24)
06. Silver Machine/Welcome To The Future[unlisted]/Credits[unlisted] (7:49)

Лог создания рипа

EAC extraction logfile from 23. December 2008, 10:24 for CDHAWKWIND / BBC Radio 1 Live in Concert
Used drive : HL-DT-STDVDRRW GSA-2164D Adapter: 5 ID: 0Read mode : Secure with NO C2, accurate stream, disable cacheRead offset correction : 102Overread into Lead-In and Lead-Out : No
Used output format : Internal WAV Routines 44.100 Hz; 16 Bit; Stereo
Other options : Fill up missing offset samples with silence : Yes Delete leading and trailing silent blocks : No Native Win32 interface for Win NT & 2000
Range status and errorsSelected range Filename D:\Hawkwind\HAWKWIND - BBC Radio 1 Live in Concert.wav
Peak level 100.0 % Range quality 100.0 % CRC 3C60FC4A Copy OK
No errors occured
End of status report

1972 - Space Rock From London

Год издания диска: 1972
Издатель (лейбл): Genschman Records
Номер по каталогу: GENCH 1002CD
Аудио кодек: FLAC (*.flac)
Тип рипа: tracks+.cue
Битрейт аудио: lossless
Продолжительность: 53:53
Наличие сканов в содержимом раздачи: да
Треклист:
?. 01 - Introduction (1:08)
?. 02 - Born To Go (10:28)
?. 03 - Seven By Seven (8:58)
?. 04 - Brainstorm (7:50)
?. 05 - Master Of The Universe (9:16)
?. 06 - Paranoia (9:22)
?. 07 - Silver Machine (6:51)

Лог создания рипа

EAC extraction logfile from 9. January 2007, 8:00 for CDHawkwind / Space Rock From London
Used drive : SAMSUNG CD-R/RW SW-240B Adapter: 3 ID: 1Read mode : Secure with NO C2, accurate stream, disable cacheRead offset correction : 97Overread into Lead-In and Lead-Out : No
Used output format : Internal WAV Routines 44.100 Hz; 16 Bit; Stereo
Other options : Fill up missing offset samples with silence : Yes Delete leading and trailing silent blocks : No Installed external ASPI interface
Track 1 Filename N:\Hawkwind Seed\Hawkwind - Space Rock From London (1972) [FLAC]\01 - Introduction.wav
Pre-gap length 0:00:02.00
Peak level 47.2 % Track quality 100.0 % Test CRC 74DBDFA4 Copy CRC 74DBDFA4 Copy OK
Track 2 Filename N:\Hawkwind Seed\Hawkwind - Space Rock From London (1972) [FLAC]\02 - Born To Go.wav
Pre-gap length 0:00:01.02
Peak level 82.3 % Track quality 100.0 % Test CRC 41FBFC07 Copy CRC 41FBFC07 Copy OK
Track 3 Filename N:\Hawkwind Seed\Hawkwind - Space Rock From London (1972) [FLAC]\03 - Seven By Seven.wav
Pre-gap length 0:00:02.20
Peak level 67.7 % Track quality 100.0 % Test CRC E497BF65 Copy CRC E497BF65 Copy OK
Track 4 Filename N:\Hawkwind Seed\Hawkwind - Space Rock From London (1972) [FLAC]\04 - Brainstorm.wav
Peak level 76.4 % Track quality 100.0 % Test CRC F0ECBA9A Copy CRC F0ECBA9A Copy OK
Track 5 Filename N:\Hawkwind Seed\Hawkwind - Space Rock From London (1972) [FLAC]\05 - Master Of The Universe.wav
Pre-gap length 0:00:02.62
Peak level 69.6 % Track quality 100.0 % Test CRC 046894AA Copy CRC 046894AA Copy OK
Track 6 Filename N:\Hawkwind Seed\Hawkwind - Space Rock From London (1972) [FLAC]\06 - Paranoia.wav
Peak level 67.5 % Track quality 100.0 % Test CRC 71774C7F Copy CRC 71774C7F Copy OK
Track 7 Filename N:\Hawkwind Seed\Hawkwind - Space Rock From London (1972) [FLAC]\07 - Silver Machine.wav
Peak level 72.2 % Track quality 100.0 % Test CRC 5FEC60F3 Copy CRC 5FEC60F3 Copy OK
No errors occured
End of status report

Содержание индексной карты (.CUE)

PERFORMER "Hawkwind"TITLE "Space Rock From London"FILE "01 - Introduction.wav" WAVE TRACK 01 AUDIO TITLE "Introduction" PERFORMER "Hawkwind" INDEX 01 00:00:00 TRACK 02 AUDIO TITLE "Born To Go" PERFORMER "Hawkwind" INDEX 00 01:07:23FILE "02 - Born To Go.wav" WAVE INDEX 01 00:00:00 TRACK 03 AUDIO TITLE "Seven By Seven" PERFORMER "Hawkwind" INDEX 00 10:25:40FILE "03 - Seven By Seven.wav" WAVE INDEX 01 00:00:00FILE "04 - Brainstorm.wav" WAVE TRACK 04 AUDIO TITLE "Brainstorm" PERFORMER "Hawkwind" INDEX 01 00:00:00 TRACK 05 AUDIO TITLE "Master Of The Universe" PERFORMER "Hawkwind" INDEX 00 07:47:33FILE "05 - Master Of The Universe.wav" WAVE INDEX 01 00:00:00FILE "06 - Paranoia.wav" WAVE TRACK 06 AUDIO TITLE "Paranoia" PERFORMER "Hawkwind" INDEX 01 00:00:00FILE "07 - Silver Machine.wav" WAVE TRACK 07 AUDIO TITLE "Silver Machine" PERFORMER "Hawkwind" INDEX 01 00:00:00

1973 - The Space Ritual 2CD

Год издания диска: 1973
Издатель (лейбл): EMI
Номер по каталогу: 7243 5 30032 2 7
Аудио кодек: FLAC (*.flac)
Тип рипа: image+.cue
Битрейт аудио: lossless
Продолжительность: 1:03:32 + 52:00
Наличие сканов в содержимом раздачи: да
Треклист:
CD1:
01. Earth Calling (1:45)
02. Born to Go (9:57)
03. Down Through the Night (6:17)
04. The Awakening (1:32)
05. Lord of Light (7:21)
06. Black Corridor (1:51)
07. Space Is Deep (8:13)
08. Electronic No. 1 (2:27)
09. Orgone Accumulator (9:59)
10. Upside Down (2:43)
11. 10 Seconds of Forever (2:06)
12. Brainstorm (9:20)
CD2:
01. 7 By 7 (6:11)
02. Sonic Attack (2:55)
03. Time We Left This World Today (5:48)
04. Master Of The Universe (7:37)
05. Welcome To The Future (2:04)
06. You Shouldn't Do That (6:59)
07. Master Of The Universe (7:23)
08. Born To Go (13:03)

Лог создания рипа

CD1

Exact Audio Copy V0.99 prebeta 5 from 4. May 2009
Отчёт EAC об извлечении, выполненном 20. октября 2010, 21:20
Hawkwind / Space Ritual
Дисковод: ASUS DRW-2014L1T Adapter: 2 ID: 0
Режим чтения : ДостоверностьИспользование точного потока : ДаОтключение кэша аудио : ДаИспользование указателей C2 : Нет
Коррекция смещения при чтении : 6Способность читать области Lead-in и Lead-out : НетЗаполнение пропущенных сэмплов тишиной : ДаУдаление блоков с тишиной в начале и конце : НетПри вычислениях CRC использовались нулевые сэмплы : ДаИнтерфейс : Установленный внешний ASPI-интерфейс
Выходной формат : Внутренние WAV-операцииФормат сэмплов : 44.100 Гц; 16 бит; стереоСмещение при сжатии : 6
TOC извлечённого CD
Трек | Старт | Длительность | Начальный сектор | Конечный сектор --------------------------------------------------------------------- 1 | 0:00.00 | 1:44.45 | 0 | 7844 2 | 1:44.45 | 9:56.62 | 7845 | 52606 3 | 11:41.32 | 6:16.68 | 52607 | 80874 4 | 17:58.25 | 1:32.32 | 80875 | 87806 5 | 19:30.57 | 7:21.30 | 87807 | 120911 6 | 26:52.12 | 1:51.20 | 120912 | 129256 7 | 28:43.32 | 8:13.30 | 129257 | 166261 8 | 36:56.62 | 2:26.40 | 166262 | 177251 9 | 39:23.27 | 9:59.20 | 177252 | 222196 10 | 49:22.47 | 2:43.35 | 222197 | 234456 11 | 52:06.07 | 2:05.65 | 234457 | 243896 12 | 54:11.72 | 9:20.03 | 243897 | 285899
Характеристики диапазона извлечения и сообщения об ошибках
Выбранный диапазон
Имя файла C:\Users\Администратор\Desktop\Hawkwind - 1973 - Space Ritual\Hawkwind - Space Ritual.wav
Пиковый уровень 100.0 % Качество диапазона 100.0 % CRC копии D9623DB7 Копирование... OK
Ошибок не произошло
Конец отчёта

CD2

Exact Audio Copy V0.99 prebeta 5 from 4. May 2009
Отчёт EAC об извлечении, выполненном 20. октября 2010, 21:39
Hawkwind / Space Ritual (Disc 2)
Дисковод: ASUS DRW-2014L1T Adapter: 2 ID: 0
Режим чтения : ДостоверностьИспользование точного потока : ДаОтключение кэша аудио : ДаИспользование указателей C2 : Нет
Коррекция смещения при чтении : 6Способность читать области Lead-in и Lead-out : НетЗаполнение пропущенных сэмплов тишиной : ДаУдаление блоков с тишиной в начале и конце : НетПри вычислениях CRC использовались нулевые сэмплы : ДаИнтерфейс : Установленный внешний ASPI-интерфейс
Выходной формат : Внутренние WAV-операцииФормат сэмплов : 44.100 Гц; 16 бит; стереоСмещение при сжатии : 6
TOC извлечённого CD
Трек | Старт | Длительность | Начальный сектор | Конечный сектор --------------------------------------------------------------------- 1 | 0:00.00 | 6:11.30 | 0 | 27854 2 | 6:11.30 | 2:54.45 | 27855 | 40949 3 | 9:06.00 | 5:47.40 | 40950 | 67014 4 | 14:53.40 | 7:37.00 | 67015 | 101289 5 | 22:30.40 | 2:04.32 | 101290 | 110621 6 | 24:34.72 | 6:58.55 | 110622 | 142026 7 | 31:33.52 | 7:23.28 | 142027 | 175279 8 | 38:57.05 | 13:02.70 | 175280 | 233999
Характеристики диапазона извлечения и сообщения об ошибках
Выбранный диапазон
Имя файла C:\Users\Администратор\Desktop\Hawkwind - 1973 - Space Ritual\Hawkwind - Space Ritual (Disc 2).wav
Пиковый уровень 100.0 % Качество диапазона 100.0 % CRC копии 0E9E2EEC Копирование... OK
Ошибок не произошло
Конец отчёта

Информация об альбоме

Space Ritual (полное название — The Space Ritual Alive in Liverpool and London) — двойной концертный альбом британской рок-группы Hawkwind, записанный в декабре 1972 года и выпущенный компанией United Artists в мае 1973 года. Альбом поднялся до #9 в UK Albums Chart[1] и до #179 в Billboard Hot 200.
Альбом был записан на Liverpool Stadium 22 декабря 1972 года и в зале Brixton Sundown 30 декабря 1972 года, при участии звукорежиссёра Вика Мэйла (Vic Maile), работавшего на Pye Mobile. Плёнки были смикшированы в Olympic Studios, в Барнсе, Виком Мэйлом и Антоном Мэтьюзом. В ходе Space Ritual Tour Hawkwind исполняли, в основном, материал Doremi Fasol Latido; песни оттуда составляют основную часть двойного концертного альбома.
К ним были добавлены записи трёх новых композиций («Born To Go», «Upside Down» и «Orgone Accumulator»), а также фрагменты декламаций, которые вместе с электронными эффектами служат связующими звеньями между треками. «Silver Machine», незадолго до этого поднявшаяся до #3 в UK Singles Chart не была включена в альбом; из песен двух первых альбомов здесь присутствует только «Master of the Universe». Композиция «Sonic Attack» была написана писателем-фантастом Майклом Муркоком, который часто выступал с группой когда находил это для себя возможным или когда Калверт не мог выйти на сцену. В оригинальной версии альбома текст декламирует Калверт.
Обложка альбома, выполненная Барни Бабблсом[2] вошла в список 100 лучших альбомных обложек журнала Q

1973 - The Space Ritual (Collector's Edition 2007) 2CD

Год издания диска: 1973
Издатель (лейбл): EMI
Номер по каталогу: 0946 3 94071 2 5
Аудио кодек: FLAC (*.flac)
Тип рипа: image+.cue Accurate rip
Битрейт аудио: lossless
Продолжительность: 1:07:58 + 1:05:01
Наличие сканов в содержимом раздачи: да
Треклист:
CD1:
01. Earth Calling (1:45)
02. Born To Go (9:55)
03. Down Through The Night (6:18)
04. The Awakening (1:35)
05. Lord Of Light (7:17)
06. Black Corridor (1:51)
07. Space Is Deep (8:13)
08. Electronic No. 1 (2:33)
09. Orgone Accumulator (9:56)
10. Upside Down (2:43)
11. 10 Seconds Of Forever (2:05)
12. Brainstorm ** (13:46)
CD2:
01. 7 By 7 (6:06)
02. Sonic Attack (2:53)
03. Time We Left This World Today (5:43)
04. Master Of The Universe (7:40)
05. Welcome To The Future ** (2:50)
06. You Shouldn't Do That * (10:47)
07. Orgone Accumulator *** (8:54)
08. Time We Left This World Today *** (13:25)
09. You Shouldn't Do That *** (6:43)

Лог создания рипа

CD1

Exact Audio Copy V0.99 prebeta 5 from 4. May 2009
EAC extraction logfile from 15. August 2009, 14:23
Hawkwind / The Space Ritual (Collector's Edition) (Disc 1)
Used drive : HL-DT-STDVD-RW GSA-H11N Adapter: 1 ID: 0
Read mode : SecureUtilize accurate stream : YesDefeat audio cache : YesMake use of C2 pointers : No
Read offset correction : 667Overread into Lead-In and Lead-Out : NoFill up missing offset samples with silence : YesDelete leading and trailing silent blocks : NoNull samples used in CRC calculations : YesUsed interface : Native Win32 interface for Win NT & 2000
Used output format : Internal WAV RoutinesSample format : 44.100 Hz; 16 Bit; Stereo
TOC of the extracted CD
Track | Start | Length | Start sector | End sector --------------------------------------------------------- 1 | 0:00.00 | 1:45.06 | 0 | 7880 2 | 1:45.06 | 9:55.20 | 7881 | 52525 3 | 11:40.26 | 6:17.49 | 52526 | 80849 4 | 17:58.00 | 1:34.46 | 80850 | 87945 5 | 19:32.46 | 7:17.14 | 87946 | 120734 6 | 26:49.60 | 1:51.22 | 120735 | 129081 7 | 28:41.07 | 8:12.53 | 129082 | 166034 8 | 36:53.60 | 2:32.50 | 166035 | 177484 9 | 39:26.35 | 9:56.33 | 177485 | 222217 10 | 49:22.68 | 2:43.36 | 222218 | 234478 11 | 52:06.29 | 2:05.29 | 234479 | 243882 12 | 54:11.58 | 13:46.11 | 243883 | 305843
Range status and errors
Selected range
Filename C:\Rip\Hawkwind - The Space Ritual (Collector's Edition)\The Space Ritual (Collector's Edition) (Disc 1).wav
Peak level 100.0 % Range quality 100.0 % Copy CRC CB4CC716 Copy OK
No errors occurred
AccurateRip summary
Track 1 accurately ripped (confidence 4) [DD6FCBDE]Track 2 accurately ripped (confidence 4) [B401ADC8]Track 3 accurately ripped (confidence 4) [3C021A7F]Track 4 accurately ripped (confidence 4) [66235F61]Track 5 accurately ripped (confidence 4) [CE82D738]Track 6 accurately ripped (confidence 4) [C1C06DDE]Track 7 accurately ripped (confidence 5) [094EE9C7]Track 8 accurately ripped (confidence 4) [F40834AC]Track 9 accurately ripped (confidence 4) [822B5B58]Track 10 accurately ripped (confidence 4) [0E549EC2]Track 11 accurately ripped (confidence 4) [63295805]Track 12 accurately ripped (confidence 5) [7EF08FF9]
All tracks accurately ripped
End of status report

CD2

Exact Audio Copy V0.99 prebeta 5 from 4. May 2009
EAC extraction logfile from 15. August 2009, 14:55
Hawkwind / The Space Ritual (Collector's Edition) (Disc 2)
Used drive : HL-DT-STDVD-RW GSA-H11N Adapter: 1 ID: 0
Read mode : SecureUtilize accurate stream : YesDefeat audio cache : YesMake use of C2 pointers : No
Read offset correction : 667Overread into Lead-In and Lead-Out : NoFill up missing offset samples with silence : YesDelete leading and trailing silent blocks : NoNull samples used in CRC calculations : YesUsed interface : Native Win32 interface for Win NT & 2000
Used output format : Internal WAV RoutinesSample format : 44.100 Hz; 16 Bit; Stereo
TOC of the extracted CD
Track | Start | Length | Start sector | End sector --------------------------------------------------------- 1 | 0:00.00 | 6:05.49 | 0 | 27423 2 | 6:05.49 | 2:53.28 | 27424 | 40426 3 | 8:59.02 | 5:42.70 | 40427 | 66146 4 | 14:41.72 | 7:40.08 | 66147 | 100654 5 | 22:22.05 | 2:50.03 | 100655 | 113407 6 | 25:12.08 | 10:47.11 | 113408 | 161943 7 | 35:59.19 | 8:54.26 | 161944 | 202019 8 | 44:53.45 | 13:24.64 | 202020 | 262383 9 | 58:18.34 | 6:42.70 | 262384 | 292603
Range status and errors
Selected range
Filename C:\Rip\Hawkwind - The Space Ritual (Collector's Edition)\The Space Ritual (Collector's Edition) (Disc 2).wav
Peak level 100.0 % Range quality 100.0 % Copy CRC 3BF5C88B Copy OK
No errors occurred
AccurateRip summary
Track 1 accurately ripped (confidence 6) [3460B441]Track 2 accurately ripped (confidence 6) [C13BB93F]Track 3 accurately ripped (confidence 5) [B3995472]Track 4 accurately ripped (confidence 5) [21E7B76E]Track 5 accurately ripped (confidence 6) [270DAC0D]Track 6 accurately ripped (confidence 6) [4CB536BF]Track 7 accurately ripped (confidence 6) [04E2464B]Track 8 accurately ripped (confidence 6) [85E141B1]Track 9 accurately ripped (confidence 6) [89E7F46C]
All tracks accurately ripped
End of status report

1974 - Hall Of The Mountain Grill

Год издания диска: 1974
Издатель (лейбл): EMI
Номер по каталогу: DC-FA 3133
Аудио кодек: APE (*.ape)
Тип рипа: image+.cue
Битрейт аудио: lossless
Продолжительность: 41:31
Наличие сканов в содержимом раздачи: да
Треклист:
01. The Psychedelic Warlords (Disappear In Smoke) (7:21)
02. Wind Of Change (4:36)
03. D-Rider (6:14)
04. Web Weaver (3:10)
05. You'd Better Believe It (7:15)
06. Hall Of The Mountain Grill (2:24)
07. Lost Johnny (3:28)
08. Goat Willow (1:37)
09. Paradox (5:25)

Лог создания рипа

EAC extraction logfile from 14. November 2007, 17:35 for CDHawkwind / Hall Of The Mountain Grill
Used drive : HL-DT-STDVDRRW GSA-2164D Adapter: 5 ID: 0Read mode : Secure with NO C2, accurate stream, disable cacheRead offset correction : 102Overread into Lead-In and Lead-Out : No
Used output format : Internal WAV Routines 44.100 Hz; 16 Bit; Stereo
Other options : Fill up missing offset samples with silence : Yes Delete leading and trailing silent blocks : No Native Win32 interface for Win NT & 2000
Range status and errorsSelected range Filename C:\Documents and Settings\acer\My Documents\Hawkwind\Hawkwind - Hall Of The Mountain Grill.wav
Peak level 98.3 % Range quality 100.0 % CRC 54FF5FBD Copy OK
No errors occured
End of status report

1974 - Hall Of The Mountain Grill (Remater 1996)

Год издания диска: 1974
Издатель (лейбл): EMI
Номер по каталогу: 7243 5 30035 2 4
Аудио кодек: FLAC (*.flac)
Тип рипа: image+.cue Accurate rip
Битрейт аудио: lossless
Продолжительность: 58:36
Наличие сканов в содержимом раздачи: да
Треклист:
01. The Psychedelic Warlords (Disappear In Smoke) (6:50)
02. Wind Of Change (5:08)
03. D-Rider (6:15)
04. Web Weaver (3:15)
05. You'd Better Believe It (7:14)
06. Hall Of The Mountain Grill (2:25)
07. Lost Johnny (3:30)
08. Goat Willow (1:38)
09. Paradox (5:36)
10. You'd Better Believe It (Single Version Edit) (3:22)
11. The Psychedelic Warlords (Disappear In Smoke) (Single Version) (3:58)
12. Paradox (Remix Single Edit) (4:04)
13. It's So Easy (5:21)

Лог создания рипа

Exact Audio Copy V0.99 prebeta 1 from 25. May 2007
Отчёт EAC об извлечении, выполненном 17. декабря 2008, 18:58
Hawkwind / Hall Of The Mountain Grill
Дисковод: PIONEER DVD-RW DVR-212D Adapter: 1 ID: 1
Режим чтения : ДостоверностьИспользование точного потока : ДаОтключение кэша аудио : ДаИспользование указателей C2 : Нет
Коррекция смещения при чтении : 48Способность читать области Lead-in и Lead-out : НетЗаполнение пропущенных сэмплов тишиной : ДаУдаление блоков с тишиной в начале и конце : НетИнтерфейс : Установленный внешний ASPI-интерфейс
Выходной формат : Пользовательский кодировщикВыбранный битрейт : 768 kBit/sКачество : ВысокийДобавление ID3-тэга : НетУтилита сжатия : C:\Program Files\Exact Audio Copy\FLAC\FLAC.EXEДополнительные параметры : -6 -V -T "ARTIST=%a" -T "TITLE=%t" -T "ALBUM=%g" -T "DATE=%y" -T "TRACKNUMBER=%n" -T "GENRE=%m" -T
"COMMENT=%e" %s -o %d
TOC извлечённого CD
Трек | Старт | Длительность | Начальный сектор | Конечный сектор --------------------------------------------------------------------- 1 | 0:00.32 | 6:50.03 | 32 | 30784 2 | 6:50.35 | 5:08.37 | 30785 | 53921 3 | 11:58.72 | 6:14.65 | 53922 | 82036 4 | 18:13.62 | 3:15.35 | 82037 | 96696 5 | 21:29.22 | 7:13.68 | 96697 | 129239 6 | 28:43.15 | 2:24.55 | 129240 | 140094 7 | 31:07.70 | 3:30.05 | 140095 | 155849 8 | 34:38.00 | 1:37.60 | 155850 | 163184 9 | 36:15.60 | 5:35.50 | 163185 | 188359 10 | 41:51.35 | 3:22.17 | 188360 | 203526 11 | 45:13.52 | 3:57.45 | 203527 | 221346 12 | 49:11.22 | 4:04.18 | 221347 | 239664 13 | 53:15.40 | 5:20.47 | 239665 | 263711
Характеристики диапазона извлечения и сообщения об ошибках
Выбранный диапазон
Имя файла E:\TORRENT\Hawkwind(1974)\Hawkwind - Hall Of The Mountain Grill.wav
Пиковый уровень 95.5 % Качество диапазона 100.0 % CRC теста E12E77F4 CRC копии E12E77F4 Копирование... OK
AccurateRip: сводка
Трек 1 точное извлечение (доверие 15) [3C62C638]Трек 2 точное извлечение (доверие 15) [B769CD70]Трек 3 точное извлечение (доверие 15) [99B97C59]Трек 4 точное извлечение (доверие 15) [CB57C507]Трек 5 точное извлечение (доверие 14) [564CD6F6]Трек 6 точное извлечение (доверие 15) [BCC2D7F8]Трек 7 точное извлечение (доверие 15) [E3AF5F66]Трек 8 точное извлечение (доверие 15) [771D174F]Трек 9 точное извлечение (доверие 15) [81A68F2C]Трек 10 точное извлечение (доверие 15) [949CCFC5]Трек 11 точное извлечение (доверие 15) [7817EB22]Трек 12 точное извлечение (доверие 15) [1D9190A8]Трек 13 точное извлечение (доверие 16) [C7C1122F]
Ошибок не произошло
Конец отчёта

1975 - Warrior On The Edge Of Time

Год издания диска: 1975
Издатель (лейбл): Griffin Music
Номер по каталогу: 55421 3931-2
Аудио кодек: FLAC (*.flac)
Тип рипа: tracks+.cue
Битрейт аудио: lossless
Продолжительность: 47:49
Наличие сканов в содержимом раздачи: да
Треклист:
01. Assault & Battery Part I (5:37)
02. The Golden Void Part II (4:38)
03. The Wizard Blew His Horn (1:57)
04. Opa-Loka (5:13)
05. The Demented Man (3:58)
06. Magnu (8:22)
07. Standing at the Edge (2:40)
08. Spiral Galaxy 28948 (3:46)
09. Warriors (1:59)
10. Dying Seas (3:05)
11. Kings of Speed (3:32)
12. Motorhead (3:03)

Лог создания рипа

EAC extraction logfile from 21. November 2007, 19:01 for CDHawkwind / Warrior on the Edge of Time
Used drive : PLEXTOR DVDR PX-740A Adapter: 2 ID: 0Read mode : Secure with NO C2, accurate stream, disable cacheRead offset correction : 618Overread into Lead-In and Lead-Out : No
Used output format : Internal WAV Routines 44.100 Hz; 16 Bit; Stereo
Other options : Fill up missing offset samples with silence : Yes Delete leading and trailing silent blocks : No Native Win32 interface for Win NT & 2000
Track 1 Filename C:\Hawkwind-Warrior On The Edge Of Time[1974].flac16\01 - Assault & Battery Part I.wav
Pre-gap length 0:00:02.00
Peak level 100.0 % Track quality 100.0 % Test CRC 90304954 Copy CRC 90304954 Copy OK
Track 2 Filename C:\Hawkwind-Warrior On The Edge Of Time[1974].flac16\02 - The Golden Void Part II.wav
Peak level 99.5 % Track quality 100.0 % Test CRC 56C79219 Copy CRC 56C79219 Copy OK
Track 3 Filename C:\Hawkwind-Warrior On The Edge Of Time[1974].flac16\03 - The Wizard Blew His Horn.wav
Pre-gap length 0:00:01.25
Peak level 90.5 % Track quality 100.0 % Test CRC 9100253E Copy CRC 9100253E Copy OK
Track 4 Filename C:\Hawkwind-Warrior On The Edge Of Time[1974].flac16\04 - Opa-Loka.wav
Peak level 100.0 % Track quality 100.0 % Test CRC DF337CEA Copy CRC DF337CEA Copy OK
Track 5 Filename C:\Hawkwind-Warrior On The Edge Of Time[1974].flac16\05 - The Demented Man.wav
Peak level 78.9 % Track quality 100.0 % Test CRC CC6A4075 Copy CRC CC6A4075 Copy OK
Track 6 Filename C:\Hawkwind-Warrior On The Edge Of Time[1974].flac16\06 - Magnu.wav
Peak level 99.8 % Track quality 100.0 % Test CRC A0000587 Copy CRC A0000587 Copy OK
Track 7 Filename C:\Hawkwind-Warrior On The Edge Of Time[1974].flac16\07 - Standing at the Edge.wav
Peak level 93.2 % Track quality 100.0 % Test CRC CE4F143A Copy CRC CE4F143A Copy OK
Track 8 Filename C:\Hawkwind-Warrior On The Edge Of Time[1974].flac16\08 - Spiral Galaxy 28948.wav
Peak level 100.0 % Track quality 99.9 % Test CRC 7AF379ED Copy CRC 7AF379ED Copy OK
Track 9 Filename C:\Hawkwind-Warrior On The Edge Of Time[1974].flac16\09 - Warriors.wav
Peak level 86.6 % Track quality 100.0 % Test CRC 10C48F81 Copy CRC 10C48F81 Copy OK
Track 10 Filename C:\Hawkwind-Warrior On The Edge Of Time[1974].flac16\10 - Dying Seas.wav
Peak level 91.4 % Track quality 100.0 % Test CRC A7276318 Copy CRC A7276318 Copy OK
Track 11 Filename C:\Hawkwind-Warrior On The Edge Of Time[1974].flac16\11 - Kings of Speed.wav
Pre-gap length 0:00:02.35
Peak level 99.3 % Track quality 100.0 % Test CRC D8B85EB1 Copy CRC D8B85EB1 Copy OK
Track 12 Filename C:\Hawkwind-Warrior On The Edge Of Time[1974].flac16\12 - Motorhead.wav
Peak level 100.0 % Track quality 100.0 % Test CRC D4C7AA13 Copy CRC D4C7AA13 Copy OK
No errors occured
End of status report

Содержание индексной карты (.CUE)

REM GENRE "Psychedelic Rock"REM DATE 1974REM DISCID B20B350CREM COMMENT "ExactAudioCopy v0.95b3"PERFORMER "Hawkwind"TITLE "Warrior on the Edge of Time"FILE "01 - Assault & Battery Part I.wav" WAVE TRACK 01 AUDIO TITLE "Assault & Battery Part I" PERFORMER "Hawkwind" INDEX 01 00:00:00FILE "02 - The Golden Void Part II.wav" WAVE TRACK 02 AUDIO TITLE "The Golden Void Part II" PERFORMER "Hawkwind" FLAGS DCP INDEX 01 00:00:00 TRACK 03 AUDIO TITLE "The Wizard Blew His Horn" PERFORMER "Hawkwind" FLAGS DCP INDEX 00 04:36:23FILE "03 - The Wizard Blew His Horn.wav" WAVE INDEX 01 00:00:00FILE "04 - Opa-Loka.wav" WAVE TRACK 04 AUDIO TITLE "Opa-Loka" PERFORMER "Hawkwind" FLAGS DCP INDEX 01 00:00:00FILE "05 - The Demented Man.wav" WAVE TRACK 05 AUDIO TITLE "The Demented Man" PERFORMER "Hawkwind" FLAGS DCP INDEX 01 00:00:00FILE "06 - Magnu.wav" WAVE TRACK 06 AUDIO TITLE "Magnu" PERFORMER "Hawkwind" FLAGS DCP INDEX 01 00:00:00FILE "07 - Standing at the Edge.wav" WAVE TRACK 07 AUDIO TITLE "Standing at the Edge" PERFORMER "Hawkwind" FLAGS DCP INDEX 01 00:00:00FILE "08 - Spiral Galaxy 28948.wav" WAVE TRACK 08 AUDIO TITLE "Spiral Galaxy 28948" PERFORMER "Hawkwind" FLAGS DCP INDEX 01 00:00:00FILE "09 - Warriors.wav" WAVE TRACK 09 AUDIO TITLE "Warriors" PERFORMER "Hawkwind" FLAGS DCP INDEX 01 00:00:00FILE "10 - Dying Seas.wav" WAVE TRACK 10 AUDIO TITLE "Dying Seas" PERFORMER "Hawkwind" FLAGS DCP INDEX 01 00:00:00 TRACK 11 AUDIO TITLE "Kings of Speed" PERFORMER "Hawkwind" FLAGS DCP INDEX 00 03:02:52FILE "11 - Kings of Speed.wav" WAVE INDEX 01 00:00:00FILE "12 - Motorhead.wav" WAVE TRACK 12 AUDIO TITLE "Motorhead" PERFORMER "Hawkwind" FLAGS DCP INDEX 01 00:00:00

1975 - Warrior On The Edge Of Time (Remaster 2001)

Год издания диска: 1975
Издатель (лейбл): Rock Fever Music
Номер по каталогу: RFM 011
Аудио кодек: FLAC (*.flac)
Тип рипа: image+.cue
Битрейт аудио: lossless
Продолжительность: 52:48
Наличие сканов в содержимом раздачи: да
Треклист:
01. Assault & Battery Part I (5:34)
02. The Golden Void Part II (4:37)
03. The Wizard Blew His Horn (1:57)
04. Opa-Loka (5:11)
05. The Demented Man (3:58)
06. Magnu (8:22)
07. Standing At The Edge (2:40)
08. Spiral Galaxy 28948 (3:50)
09. Warriors (1:57)
10. Dying Seas (3:05)
11. Kings Of Speed (3:56)
12. Motorhead (3:13)
13. Kings Of Speed (Live) (4:29)

Лог создания рипа

EAC extraction logfile from 1. July 2008, 10:18 for CDHawkwind / Warrior On The Edge Of Time
Used drive : LITE-ON DVDRW LH-20A1H Adapter: 0 ID: 0Read mode : Secure with NO C2, accurate stream, disable cacheRead offset correction : 6Overread into Lead-In and Lead-Out : No
Used output format : Internal WAV Routines 44.100 Hz; 16 Bit; Stereo
Other options : Fill up missing offset samples with silence : Yes Delete leading and trailing silent blocks : No Native Win32 interface for Win NT & 2000
Range status and errorsSelected range Filename C:\blog\upload\H75WOTEOT\Hawkwind - Warrior on the Edge of Time\Hawkwind - Warrior On The Edge Of Time.wav
Peak level 100.0 % Range quality 100.0 % CRC 6E96CC63 Copy OK
No errors occured
End of status report

1976 - Astounding Sounds, Amazing Music

Год издания диска: 1976
Издатель (лейбл): Virgin
Номер по каталогу: CDSCD4004
Аудио кодек: APE (*.ape)
Тип рипа: image+.cue
Битрейт аудио: lossless
Продолжительность: 38:33
Наличие сканов в содержимом раздачи: да
Треклист:
01. Reefer Madness (6:03)
02. Steppenwolf (9:46)
03. City of Lagoons (5:09)
04. The Aubergine that Ate Rangoon (3:37)
05. Kerb Crawler (3:45)
06. Kadu Flyer (5:07)
07. Chronoglide Skyway (5:04)

Лог создания рипа

EAC extraction logfile from 26. December 2006, 12:07 for CDHawkwind / Astounding Sounds, Amazing Music
Used drive : SAMSUNG CD-R/RW SW-248F Adapter: 0 ID: 0Read mode : Secure with NO C2, accurate stream, disable cacheCombined read/write offset correction : 97Overread into Lead-In and Lead-Out : No
Used output format : Internal WAV Routines 44.100 Hz; 16 Bit; Stereo
Other options : Fill up missing offset samples with silence : Yes Delete leading and trailing silent blocks : No Installed external ASPI interface
Range status and errorsSelected range Filename E:\Hawkwind - Astounding Sounds, Amazing Music.by.rat.eac-ape-covers\Hawkwind - Astounding Sounds, Amazing Music.by.rat.eac-ape-
covers.wav
Peak level 100.0 % Range quality 100.0 % CRC AF0BD479 Copy OK
No errors occured
End of status report

1976 - Astounding Sounds, Amazing Music (Remaster 2009)

Год издания диска: 1976
Издатель (лейбл): Atomhenge
Номер по каталогу: ATOMCD 1005
Аудио кодек: FLAC (*.flac)
Тип рипа: tracks+.cue Accurate rip
Битрейт аудио: lossless
Продолжительность: 51:42
Наличие сканов в содержимом раздачи: да
Треклист:
01. Reefer Madness (6:03)
02. Steppenwolf (9:46)
03. City Of Lagoons (5:12)
04. The Aubergine That Ate Rangoon (3:37)
05. Kerb Crawler (3:47)
06. Kadu Flyer (5:32)
07. Chronoglide Skyway (4:42)
08. Honky Dorky (3:17)
09. Kerb Crawler [Single Mix] (3:44)
10. Back On The Streets [Unreleased Mix] (3:06)
11. The Dream Of Isis [Unreleased Mix] (2:57)

Лог создания рипа

Exact Audio Copy V0.99 prebeta 4 from 23. January 2008
EAC extraction logfile from 27. April 2009, 19:43
Hawkwind / Astounding Sounds, Amazing Music
Used drive : PIONEER DVD-RW DVR-108 Adapter: 1 ID: 1
Read mode : SecureUtilize accurate stream : YesDefeat audio cache : YesMake use of C2 pointers : No
Read offset correction : 48Overread into Lead-In and Lead-Out : NoFill up missing offset samples with silence : YesDelete leading and trailing silent blocks : NoNull samples used in CRC calculations : YesUsed interface : Native Win32 interface for Win NT & 2000Gap handling : Appended to previous track
Used output format : User Defined EncoderSelected bitrate : 128 kBit/sQuality : HighAdd ID3 tag : NoCommand line compressor : C:\Program Files\Exact Audio Copy\Flac\flac.exeAdditional command line options : -V -8 -T "artist=%a" -T "title=%t" -T "album=%g" -T "date=%y" -T "tracknumber=%n" -T "genre=%m" %s
TOC of the extracted CD
Track | Start | Length | Start sector | End sector --------------------------------------------------------- 1 | 0:00.00 | 6:03.15 | 0 | 27239 2 | 6:03.15 | 9:45.46 | 27240 | 71160 3 | 15:48.61 | 5:12.13 | 71161 | 94573 4 | 21:00.74 | 3:37.25 | 94574 | 110873 5 | 24:38.24 | 3:46.39 | 110874 | 127862 6 | 28:24.63 | 5:31.61 | 127863 | 152748 7 | 33:56.49 | 4:41.58 | 152749 | 173881 8 | 38:38.32 | 3:17.02 | 173882 | 188658 9 | 41:55.34 | 3:44.22 | 188659 | 205480 10 | 45:39.56 | 3:05.57 | 205481 | 219412 11 | 48:45.38 | 2:56.69 | 219413 | 232681
Track 1
Filename D:\FLAC Rips\Hawkwind - Astounding Sounds Amazing Music (1976) [FLAC] {2009 remaster}\01 - Reefer Madness.wav
Pre-gap length 0:00:02.00
Peak level 99.4 % Track quality 100.0 % Test CRC AD163998 Copy CRC AD163998 Accurately ripped (confidence 1) [4FE64183] Copy OK
Track 2
Filename D:\FLAC Rips\Hawkwind - Astounding Sounds Amazing Music (1976) [FLAC] {2009 remaster}\02 - Steppenwolf.wav
Peak level 99.4 % Track quality 100.0 % Test CRC 7D653A83 Copy CRC 7D653A83 Accurately ripped (confidence 1) [C6D51FCA] Copy OK
Track 3
Filename D:\FLAC Rips\Hawkwind - Astounding Sounds Amazing Music (1976) [FLAC] {2009 remaster}\03 - City Of Lagoons.wav
Pre-gap length 0:00:01.53
Peak level 99.4 % Track quality 100.0 % Test CRC D02EF5BE Copy CRC D02EF5BE Accurately ripped (confidence 1) [ACFEF139] Copy OK
Track 4
Filename D:\FLAC Rips\Hawkwind - Astounding Sounds Amazing Music (1976) [FLAC] {2009 remaster}\04 - The Aubergine That Ate Rangoon.wav
Pre-gap length 0:00:01.98
Peak level 99.4 % Track quality 100.0 % Test CRC 1C790BC8 Copy CRC 1C790BC8 Accurately ripped (confidence 1) [09AC3A2E] Copy OK
Track 5
Filename D:\FLAC Rips\Hawkwind - Astounding Sounds Amazing Music (1976) [FLAC] {2009 remaster}\05 - Kerb Crawler.wav
Peak level 99.4 % Track quality 100.0 % Test CRC 2058488C Copy CRC 2058488C Accurately ripped (confidence 1) [84F3263A] Copy OK
Track 6
Filename D:\FLAC Rips\Hawkwind - Astounding Sounds Amazing Music (1976) [FLAC] {2009 remaster}\06 - Kadu Flyer.wav
Peak level 99.4 % Track quality 100.0 % Test CRC BEA7D1A3 Copy CRC BEA7D1A3 Accurately ripped (confidence 1) [F9357D5F] Copy OK
Track 7
Filename D:\FLAC Rips\Hawkwind - Astounding Sounds Amazing Music (1976) [FLAC] {2009 remaster}\07 - Chronoglide Skyway.wav
Peak level 99.4 % Track quality 100.0 % Test CRC CF2D6C3F Copy CRC CF2D6C3F Accurately ripped (confidence 1) [2B1208C5] Copy OK
Track 8
Filename D:\FLAC Rips\Hawkwind - Astounding Sounds Amazing Music (1976) [FLAC] {2009 remaster}\08 - Honky Dorky.wav
Pre-gap length 0:00:05.14
Peak level 99.4 % Track quality 100.0 % Test CRC F4CFD95F Copy CRC F4CFD95F Accurately ripped (confidence 1) [263B5590] Copy OK
Track 9
Filename D:\FLAC Rips\Hawkwind - Astounding Sounds Amazing Music (1976) [FLAC] {2009 remaster}\09 - Kerb Crawler [Single Mix].wav
Pre-gap length 0:00:01.68
Peak level 99.4 % Track quality 100.0 % Test CRC 8724988B Copy CRC 8724988B Accurately ripped (confidence 1) [D21BA7CD] Copy OK
Track 10
Filename D:\FLAC Rips\Hawkwind - Astounding Sounds Amazing Music (1976) [FLAC] {2009 remaster}\10 - Back On The Streets [Unreleased Mix].wav
Pre-gap length 0:00:01.81
Peak level 92.9 % Track quality 100.0 % Test CRC 00A9143C Copy CRC 00A9143C Accurately ripped (confidence 1) [7B830A50] Copy OK
Track 11
Filename D:\FLAC Rips\Hawkwind - Astounding Sounds Amazing Music (1976) [FLAC] {2009 remaster}\11 - The Dream Of Isis [Unreleased Mix].wav
Pre-gap length 0:00:01.93
Peak level 91.1 % Track quality 100.0 % Test CRC 866E82C8 Copy CRC 866E82C8 Accurately ripped (confidence 1) [8BF1DBE4] Copy OK
All tracks accurately ripped
No errors occurred
End of status report

Содержание индексной карты (.CUE)

REM GENRE SpaceREM DISCID 890C1E0BREM COMMENT "ExactAudioCopy v0.99pb4"PERFORMER "Hawkwind"TITLE "Astounding Sounds, Amazing Music"FILE "01 - Reefer Madness.wav" WAVE TRACK 01 AUDIO TITLE "Reefer Madness" PERFORMER "Hawkwind" INDEX 01 00:00:00FILE "02 - Steppenwolf.wav" WAVE TRACK 02 AUDIO TITLE "Steppenwolf" PERFORMER "Hawkwind" INDEX 01 00:00:00 TRACK 03 AUDIO TITLE "City Of Lagoons" PERFORMER "Hawkwind" INDEX 00 09:44:06FILE "03 - City Of Lagoons.wav" WAVE INDEX 01 00:00:00 TRACK 04 AUDIO TITLE "The Aubergine That Ate Rangoon" PERFORMER "Hawkwind" INDEX 00 05:10:14FILE "04 - The Aubergine That Ate Rangoon.wav" WAVE INDEX 01 00:00:00FILE "05 - Kerb Crawler.wav" WAVE TRACK 05 AUDIO TITLE "Kerb Crawler" PERFORMER "Hawkwind" INDEX 01 00:00:00FILE "06 - Kadu Flyer.wav" WAVE TRACK 06 AUDIO TITLE "Kadu Flyer" PERFORMER "Hawkwind" INDEX 01 00:00:00FILE "07 - Chronoglide Skyway.wav" WAVE TRACK 07 AUDIO TITLE "Chronoglide Skyway" PERFORMER "Hawkwind" INDEX 01 00:00:00 TRACK 08 AUDIO TITLE "Honky Dorky" PERFORMER "Hawkwind" INDEX 00 04:36:47FILE "08 - Honky Dorky.wav" WAVE INDEX 01 00:00:00 TRACK 09 AUDIO TITLE "Kerb Crawler [Single Mix]" PERFORMER "Hawkwind" INDEX 00 03:15:26FILE "09 - Kerb Crawler [Single Mix].wav" WAVE INDEX 01 00:00:00 TRACK 10 AUDIO TITLE "Back On The Streets [Unreleased Mix]" PERFORMER "Hawkwind" INDEX 00 03:42:36FILE "10 - Back On The Streets [Unreleased Mix].wav" WAVE INDEX 01 00:00:00 TRACK 11 AUDIO TITLE "The Dream Of Isis [Unreleased Mix]" PERFORMER "Hawkwind" INDEX 00 03:03:62FILE "11 - The Dream Of Isis [Unreleased Mix].wav" WAVE INDEX 01 00:00:00

1977 - Masters Of The Universe

Год издания диска: 1977
Издатель (лейбл): EMI
Номер по каталогу: CD-FA 3220
Аудио кодек: FLAC (*.flac)
Тип рипа: image+.cue Accurate rip
Битрейт аудио: lossless
Продолжительность: 38:55
Наличие сканов в содержимом раздачи: да
Треклист:
01. Master Of The Universe (6:19)
02. Brainstorm (10:45)
03. Sonic Attack (3:01)
04. Orgone Accumulator (10:01)
05. It's So Easy (5:21)
06. Lost Johnny (3:28)

Лог создания рипа

Exact Audio Copy V0.99 prebeta 4 from 23. January 2008
EAC extraction logfile from 3. December 2009, 14:31
Hawkwind / Masters Of The Universe
Used drive : SONY DVD RW AW-G170A Adapter: 0 ID: 0
Read mode : SecureUtilize accurate stream : YesDefeat audio cache : YesMake use of C2 pointers : No
Read offset correction : 48Overread into Lead-In and Lead-Out : NoFill up missing offset samples with silence : YesDelete leading and trailing silent blocks : NoNull samples used in CRC calculations : YesUsed interface : Installed external ASPI interface
Used output format : Internal WAV RoutinesSample format : 44.100 Hz; 16 Bit; Stereo
TOC of the extracted CD
Track | Start | Length | Start sector | End sector --------------------------------------------------------- 1 | 0:00.33 | 6:19.12 | 33 | 28469 2 | 6:19.45 | 10:45.05 | 28470 | 76849 3 | 17:04.50 | 3:00.60 | 76850 | 90409 4 | 20:05.35 | 10:01.05 | 90410 | 135489 5 | 30:06.40 | 5:21.05 | 135490 | 159569 6 | 35:27.45 | 3:28.00 | 159570 | 175169
Range status and errors
Selected range
Filename D:\Music\Hawkwind - Masters Of The Universe.wav
Peak level 100.0 % Range quality 100.0 % Test CRC F8A7674B Copy CRC F8A7674B Copy OK
No errors occurred
AccurateRip summary
Track 1 accurately ripped (confidence 7) [7F4FCF8A]Track 2 accurately ripped (confidence 7) [4B3D2BF8]Track 3 accurately ripped (confidence 7) [4A62037D]Track 4 accurately ripped (confidence 7) [D518B3CC]Track 5 accurately ripped (confidence 7) [FA4D3B76]Track 6 accurately ripped (confidence 7) [028A416B]
All tracks accurately ripped
End of status report

1977 - Quark, Strangeness and Charm

Год издания диска: 1977
Издатель (лейбл): Virgin
Номер по каталогу: CDSCD4008
Аудио кодек: FLAC (*.flac)
Тип рипа: image+.cue Accurate rip
Битрейт аудио: lossless
Продолжительность: 36:55
Наличие сканов в содержимом раздачи: да
Треклист:
01. Spirit Of The Age (7:19)
02. Damnation Alley (9:08)
03. Fable Of A Failed Race (3:18)
04. Quark, Strangeness And Charm (3:42)
05. Hassan I Sahba (5:22)
06. The Forge Of Vulcan (3:06)
07. Days Of The Underground (3:10)
08. The Iron Dream (1:49)

Лог создания рипа

Exact Audio Copy V0.99 prebeta 5 from 4. May 2009
Отчёт EAC об извлечении, выполненном 8. ноября 2010, 22:26
Hawkwind / Quark, Strangeness And Charm
Дисковод: ASUS DRW-2014L1T Adapter: 2 ID: 0
Режим чтения : ДостоверностьИспользование точного потока : ДаОтключение кэша аудио : ДаИспользование указателей C2 : Нет
Коррекция смещения при чтении : 6Способность читать области Lead-in и Lead-out : НетЗаполнение пропущенных сэмплов тишиной : ДаУдаление блоков с тишиной в начале и конце : НетПри вычислениях CRC использовались нулевые сэмплы : ДаИнтерфейс : Установленный внешний ASPI-интерфейс
Выходной формат : Внутренние WAV-операцииФормат сэмплов : 44.100 Гц; 16 бит; стерео
TOC извлечённого CD
Трек | Старт | Длительность | Начальный сектор | Конечный сектор --------------------------------------------------------------------- 1 | 0:00.00 | 7:19.27 | 0 | 32951 2 | 7:19.27 | 9:08.28 | 32952 | 74079 3 | 16:27.55 | 3:18.30 | 74080 | 88959 4 | 19:46.10 | 3:41.45 | 88960 | 105579 5 | 23:27.55 | 5:22.12 | 105580 | 129741 6 | 28:49.67 | 3:05.45 | 129742 | 143661 7 | 31:55.37 | 3:10.15 | 143662 | 157926 8 | 35:05.52 | 1:49.23 | 157927 | 166124
Характеристики диапазона извлечения и сообщения об ошибках
Выбранный диапазон
Имя файла C:\Users\Администратор\Desktop\Hawkwind - Quark, Strangeness And Charm 1977\Hawkwind - Quark, Strangeness And Charm.wav
Пиковый уровень 100.0 % Качество диапазона 100.0 % CRC копии A02615A4 Копирование... OK
Ошибок не произошло
AccurateRip: сводка
Трек 1 точное извлечение (доверие 4) [5E056EAA]Трек 2 точное извлечение (доверие 4) [EEA8C486]Трек 3 точное извлечение (доверие 4) [78306EF4]Трек 4 точное извлечение (доверие 4) [6A4038F3]Трек 5 точное извлечение (доверие 4) [40746121]Трек 6 точное извлечение (доверие 4) [B313C4F9]Трек 7 точное извлечение (доверие 4) [3A8907EA]Трек 8 точное извлечение (доверие 4) [A467A4FD]
Все треки извлечены точно
Конец отчёта

1977 - Quark, Strangeness and Charm 2CD (Remaster 2009)

Год издания диска: 1977
Издатель (лейбл): Atomhenge
Номер по каталогу: ATOMCD 2009
Аудио кодек: FLAC (*.flac)
Тип рипа: tracks+.cue
Битрейт аудио: lossless
Продолжительность: 1:04:56 + 1:09:53
Наличие сканов в содержимом раздачи: да
Треклист:
CD1:
01. Spirit of the Age (7:25)
02. Damnation Alley (9:02)
03. Fable of a Failed Race (3:22)
04. Qark,Strangeness and Charm (3:41)
05. Hassan I Sabbah (5:22)
06. The Forge of Vulcan (3:06)
07. The Days of the Underground (3:11)
08. The Iron Dream (1:54)
09. Damnation Alley [Live Studio Version} (10:35)
10. A Minor Jam Session {Previously Unreleasd} (9:51)
11. Spirit of the Age {Demo Excerpt} {Previously Unreleasd} (3:00)
12. Hash Cake Cut (4:26)
CD2:
01. Damnation Alley {First Studio Version} (10:37)
02. Spirit of the Age {Full Extended Version} (11:23)
03. The Days of the Underground {First Version} (5:40)
04. Quark,Strangeness & Charm / Uncle Sam's on Mars (9:20)
05. Fable of a Failed Race {Extended Version} (6:51)
06. Damnation Alley {Alternate Harmony Vocal Version} (8:25)
07. Spirit of the Age {Live Recording 1977} (5:56)
08. Robot (5:59)
09. High Rise {Live Recording 1977} (5:41)

Лог создания рипа

CD1

Exact Audio Copy V0.99 prebeta 4 from 23. January 2008
EAC extraction logfile from 18. April 2009, 18:47
Hawkwind / Quark,Strangeness and Charm cd1
Used drive : PLEXTOR DVDR PX-810SA Adapter: 4 ID: 1
Read mode : SecureUtilize accurate stream : YesDefeat audio cache : YesMake use of C2 pointers : No
Read offset correction : 48Overread into Lead-In and Lead-Out : NoFill up missing offset samples with silence : YesDelete leading and trailing silent blocks : NoNull samples used in CRC calculations : YesUsed interface : Native Win32 interface for Win NT & 2000Gap handling : Appended to previous track
Used output format : User Defined EncoderSelected bitrate : 1024 kBit/sQuality : HighAdd ID3 tag : YesCommand line compressor : C:\Program Files\Exact Audio Copy\Flac\flac.exeAdditional command line options : -6 -V -T "ARTIST=%a" -T "TITLE=%t" -T "ALBUM=%g" -T "DATE=%y" -T "TRACKNUMBER=%n" -T "GENRE=%m" -T
"COMMENT=%e" %s -o %d
TOC of the extracted CD
Track | Start | Length | Start sector | End sector --------------------------------------------------------- 1 | 0:00.00 | 7:25.04 | 0 | 33378 2 | 7:25.04 | 9:01.64 | 33379 | 74017 3 | 16:26.68 | 3:21.58 | 74018 | 89150 4 | 19:48.51 | 3:41.08 | 89151 | 105733 5 | 23:29.59 | 5:22.05 | 105734 | 129888 6 | 28:51.64 | 3:05.62 | 129889 | 143825 7 | 31:57.51 | 3:11.28 | 143826 | 158178 8 | 35:09.04 | 1:53.39 | 158179 | 166692 9 | 37:02.43 | 10:35.34 | 166693 | 214351 10 | 47:38.02 | 9:51.36 | 214352 | 258712 11 | 57:29.38 | 2:59.72 | 258713 | 272209 12 | 60:29.35 | 4:26.03 | 272210 | 292162
Track 1
Filename E:\Mijn Muziek Flac\Hawkwind\Hawkwind Qark,Strangeness and Charm Deluxe Edition 2009 2 Cd's\Cd 1\01-Spirit of the Age.wav
Pre-gap length 0:00:02.00
Peak level 99.4 % Track quality 100.0 % Test CRC 223A65DB Copy CRC 223A65DB Track not present in AccurateRip database Copy OK
Track 2
Filename E:\Mijn Muziek Flac\Hawkwind\Hawkwind Qark,Strangeness and Charm Deluxe Edition 2009 2 Cd's\Cd 1\02-Damnation Alley.wav
Peak level 99.4 % Track quality 100.0 % Test CRC FAB8BD65 Copy CRC FAB8BD65 Track not present in AccurateRip database Copy OK
Track 3
Filename E:\Mijn Muziek Flac\Hawkwind\Hawkwind Qark,Strangeness and Charm Deluxe Edition 2009 2 Cd's\Cd 1\03-Fable of a Failed Race.wav
Peak level 99.4 % Track quality 100.0 % Test CRC 3542FD14 Copy CRC 3542FD14 Track not present in AccurateRip database Copy OK
Track 4
Filename E:\Mijn Muziek Flac\Hawkwind\Hawkwind Qark,Strangeness and Charm Deluxe Edition 2009 2 Cd's\Cd 1\04-Qark,Strangeness and Charm.wav
Pre-gap length 0:00:01.47
Peak level 99.4 % Track quality 100.0 % Test CRC BCD06670 Copy CRC BCD06670 Track not present in AccurateRip database Copy OK
Track 5
Filename E:\Mijn Muziek Flac\Hawkwind\Hawkwind Qark,Strangeness and Charm Deluxe Edition 2009 2 Cd's\Cd 1\05-Hassan I Sabbah.wav
Peak level 99.4 % Track quality 99.9 % Test CRC 1B0CABAE Copy CRC 1B0CABAE Track not present in AccurateRip database Copy OK
Track 6
Filename E:\Mijn Muziek Flac\Hawkwind\Hawkwind Qark,Strangeness and Charm Deluxe Edition 2009 2 Cd's\Cd 1\06-The Forge of Vulcan.wav
Peak level 99.4 % Track quality 100.0 % Test CRC F5A1404C Copy CRC F5A1404C Track not present in AccurateRip database Copy OK
Track 7
Filename E:\Mijn Muziek Flac\Hawkwind\Hawkwind Qark,Strangeness and Charm Deluxe Edition 2009 2 Cd's\Cd 1\07-The Days of the Underground.wav
Peak level 99.4 % Track quality 100.0 % Test CRC 6941B6FC Copy CRC 6941B6FC Track not present in AccurateRip database Copy OK
Track 8
Filename E:\Mijn Muziek Flac\Hawkwind\Hawkwind Qark,Strangeness and Charm Deluxe Edition 2009 2 Cd's\Cd 1\08-The Iron Dream.wav
Peak level 99.4 % Track quality 100.0 % Test CRC 305F5EC7 Copy CRC 305F5EC7 Track not present in AccurateRip database Copy OK
Track 9
Filename E:\Mijn Muziek Flac\Hawkwind\Hawkwind Qark,Strangeness and Charm Deluxe Edition 2009 2 Cd's\Cd 1\09-Damnation Alley [Live Studio
Version}.wav
Pre-gap length 0:00:04.20
Peak level 99.4 % Track quality 100.0 % Test CRC 30400284 Copy CRC 30400284 Track not present in AccurateRip database Copy OK
Track 10
Filename E:\Mijn Muziek Flac\Hawkwind\Hawkwind Qark,Strangeness and Charm Deluxe Edition 2009 2 Cd's\Cd 1\10-A Minor Jam Session {Previously
Unreleasd}.wav
Pre-gap length 0:00:01.51
Peak level 99.4 % Track quality 100.0 % Test CRC 727884F0 Copy CRC 727884F0 Track not present in AccurateRip database Copy OK
Track 11
Filename E:\Mijn Muziek Flac\Hawkwind\Hawkwind Qark,Strangeness and Charm Deluxe Edition 2009 2 Cd's\Cd 1\11-Spirit of the Age {Demo Excerpt}
{Previously Unreleasd}.wav
Pre-gap length 0:00:01.49
Peak level 99.4 % Track quality 99.9 % Test CRC BB406898 Copy CRC BB406898 Track not present in AccurateRip database Copy OK
Track 12
Filename E:\Mijn Muziek Flac\Hawkwind\Hawkwind Qark,Strangeness and Charm Deluxe Edition 2009 2 Cd's\Cd 1\12-Hash Cake Cut.wav
Pre-gap length 0:00:01.57
Peak level 74.6 % Track quality 100.0 % Test CRC 90835521 Copy CRC 90835521 Track not present in AccurateRip database Copy OK
None of the tracks are present in the AccurateRip database
No errors occurred
End of status report

CD2

Exact Audio Copy V0.99 prebeta 4 from 23. January 2008
EAC extraction logfile from 18. April 2009, 18:06
Hawkwind / Quark,Strangeness and Charm cd2
Used drive : PLEXTOR DVDR PX-810SA Adapter: 4 ID: 1
Read mode : SecureUtilize accurate stream : YesDefeat audio cache : YesMake use of C2 pointers : No
Read offset correction : 48Overread into Lead-In and Lead-Out : NoFill up missing offset samples with silence : YesDelete leading and trailing silent blocks : NoNull samples used in CRC calculations : YesUsed interface : Native Win32 interface for Win NT & 2000Gap handling : Appended to previous track
Used output format : User Defined EncoderSelected bitrate : 1024 kBit/sQuality : HighAdd ID3 tag : YesCommand line compressor : C:\Program Files\Exact Audio Copy\Flac\flac.exeAdditional command line options : -6 -V -T "ARTIST=%a" -T "TITLE=%t" -T "ALBUM=%g" -T "DATE=%y" -T "TRACKNUMBER=%n" -T "GENRE=%m" -T
"COMMENT=%e" %s -o %d
TOC of the extracted CD
Track | Start | Length | Start sector | End sector --------------------------------------------------------- 1 | 0:00.00 | 10:36.60 | 0 | 47759 2 | 10:36.60 | 11:23.10 | 47760 | 98994 3 | 21:59.70 | 5:40.02 | 98995 | 124496 4 | 27:39.72 | 9:20.36 | 124497 | 166532 5 | 37:00.33 | 6:51.07 | 166533 | 197364 6 | 43:51.40 | 8:25.16 | 197365 | 235255 7 | 52:16.56 | 5:56.21 | 235256 | 261976 8 | 58:13.02 | 5:58.46 | 261977 | 288872 9 | 64:11.48 | 5:41.19 | 288873 | 314466
Track 1
Filename E:\Mijn Muziek Flac\Hawkwind\Hawkwind Qark,Strangeness and Charm Deluxe Edition 2009 2 Cd's\Cd 2\01-Damnation Alley {First Studio
Version}.wav
Pre-gap length 0:00:02.00
Peak level 99.4 % Track quality 100.0 % Test CRC 6C39653F Copy CRC 6C39653F Track not present in AccurateRip database Copy OK
Track 2
Filename E:\Mijn Muziek Flac\Hawkwind\Hawkwind Qark,Strangeness and Charm Deluxe Edition 2009 2 Cd's\Cd 2\02-Spirit of the Age {Full Extended
Version}.wav
Pre-gap length 0:00:01.53
Peak level 99.4 % Track quality 100.0 % Test CRC 271D0CF8 Copy CRC 271D0CF8 Track not present in AccurateRip database Copy OK
Track 3
Filename E:\Mijn Muziek Flac\Hawkwind\Hawkwind Qark,Strangeness and Charm Deluxe Edition 2009 2 Cd's\Cd 2\03-The Days of the Underground {First
Version}.wav
Pre-gap length 0:00:02.01
Peak level 99.4 % Track quality 99.9 % Test CRC 00CBA407 Copy CRC 00CBA407 Track not present in AccurateRip database Copy OK
Track 4
Filename E:\Mijn Muziek Flac\Hawkwind\Hawkwind Qark,Strangeness and Charm Deluxe Edition 2009 2 Cd's\Cd 2\04-Quark,Strangeness & Charm ,
Uncle Sam's on Mars.wav
Pre-gap length 0:00:02.34
Peak level 99.4 % Track quality 100.0 % Test CRC F881DC7D Copy CRC F881DC7D Track not present in AccurateRip database Copy OK
Track 5
Filename E:\Mijn Muziek Flac\Hawkwind\Hawkwind Qark,Strangeness and Charm Deluxe Edition 2009 2 Cd's\Cd 2\05-Fable of a Failed Race {Extended
Version}.wav
Pre-gap length 0:00:02.38
Peak level 99.4 % Track quality 99.9 % Test CRC 074035B7 Copy CRC 074035B7 Track not present in AccurateRip database Copy OK
Track 6
Filename E:\Mijn Muziek Flac\Hawkwind\Hawkwind Qark,Strangeness and Charm Deluxe Edition 2009 2 Cd's\Cd 2\06-Damnation Alley {Alternate
Harmony Vocal Version}.wav
Pre-gap length 0:00:02.54
Peak level 99.4 % Track quality 100.0 % Test CRC 13CC9245 Copy CRC 13CC9245 Track not present in AccurateRip database Copy OK
Track 7
Filename E:\Mijn Muziek Flac\Hawkwind\Hawkwind Qark,Strangeness and Charm Deluxe Edition 2009 2 Cd's\Cd 2\07-Spirit of the Age {Live Recording
1977}.wav
Pre-gap length 0:00:02.10
Peak level 88.8 % Track quality 99.9 % Test CRC E85B5BBE Copy CRC E85B5BBE Track not present in AccurateRip database Copy OK
Track 8
Filename E:\Mijn Muziek Flac\Hawkwind\Hawkwind Qark,Strangeness and Charm Deluxe Edition 2009 2 Cd's\Cd 2\08-Robot.wav
Pre-gap length 0:00:01.42
Peak level 89.5 % Track quality 99.9 % Test CRC D85920C4 Copy CRC D85920C4 Track not present in AccurateRip database Copy OK
Track 9
Filename E:\Mijn Muziek Flac\Hawkwind\Hawkwind Qark,Strangeness and Charm Deluxe Edition 2009 2 Cd's\Cd 2\09-High Rise {Live Recording 1977}.wav
Pre-gap length 0:00:01.27
Peak level 86.1 % Track quality 100.0 % Test CRC A004B7F9 Copy CRC A004B7F9 Track not present in AccurateRip database Copy OK
None of the tracks are present in the AccurateRip database
No errors occurred
End of status report

Содержание индексной карты (.CUE)

CD1

REM GENRE "Progressive Rock"REM DATE 2009REM DISCID 970F370CREM COMMENT "ExactAudioCopy v0.99pb4"PERFORMER "Hawkwind"TITLE "Quark,Strangeness and Charm cd1"FILE "01 - Spirit of the Age.wav" WAVE TRACK 01 AUDIO TITLE "Spirit of the Age" PERFORMER "Hawkwind" INDEX 01 00:00:00FILE "02 - Damnation Alley.wav" WAVE TRACK 02 AUDIO TITLE "Damnation Alley" PERFORMER "Hawkwind" INDEX 01 00:00:00FILE "03 - Fable of a Failed Race.wav" WAVE TRACK 03 AUDIO TITLE "Fable of a Failed Race" PERFORMER "Hawkwind" INDEX 01 00:00:00 TRACK 04 AUDIO TITLE "Qark,Strangeness and Charm" PERFORMER "Hawkwind" INDEX 00 03:20:11FILE "04 - Qark,Strangeness and Charm.wav" WAVE INDEX 01 00:00:00FILE "05 - Hassan I Sabbah.wav" WAVE TRACK 05 AUDIO TITLE "Hassan I Sabbah" PERFORMER "Hawkwind" INDEX 01 00:00:00FILE "06 - The Forge of Vulcan.wav" WAVE TRACK 06 AUDIO TITLE "The Forge of Vulcan" PERFORMER "Hawkwind" INDEX 01 00:00:00FILE "07 - The Days of the Underground.wav" WAVE TRACK 07 AUDIO TITLE "The Days of the Underground" PERFORMER "Hawkwind" INDEX 01 00:00:00FILE "08 - The Iron Dream.wav" WAVE TRACK 08 AUDIO TITLE "The Iron Dream" PERFORMER "Hawkwind" INDEX 01 00:00:00 TRACK 09 AUDIO TITLE "Damnation Alley [Live Studio Version]" PERFORMER "Hawkwind" INDEX 00 01:49:19FILE "09 - Damnation Alley [Live Studio Version].wav" WAVE INDEX 01 00:00:00 TRACK 10 AUDIO TITLE "A Minor Jam Session [Previously Unreleased]" PERFORMER "Hawkwind" INDEX 00 10:33:58FILE "10 - A Minor Jam Session [Previously Unreleased].wav" WAVE INDEX 01 00:00:00 TRACK 11 AUDIO TITLE "Spirit of the Age [Demo Excerpt][Previously Unreleasd]" PERFORMER "Hawkwind" INDEX 00 09:49:62FILE "11 - Spirit of the Age [Demo Excerpt][Previously Unreleased].wav" WAVE INDEX 01 00:00:00 TRACK 12 AUDIO TITLE "Hash Cake Cut" PERFORMER "Hawkwind" INDEX 00 02:58:15FILE "12 - Hash Cake Cut.wav" WAVE INDEX 01 00:00:00

CD2

REM GENRE "Progressive Rock"REM DATE 2009REM DISCID 75106009REM COMMENT "ExactAudioCopy v0.99pb4"PERFORMER "Hawkwind"TITLE "Quark,Srtangeness and Charm cd2"FILE "01 - Damnation Alley {First Studio Version}.wav" WAVE TRACK 01 AUDIO TITLE "Damnation Alley {First Studio Version}" PERFORMER "Hawkwind" INDEX 01 00:00:00 TRACK 02 AUDIO TITLE "Spirit of the Age {Full Extended Version}" PERFORMER "Hawkwind" INDEX 00 10:35:07FILE "02 - Spirit of the Age {Full Extended Version}.wav" WAVE INDEX 01 00:00:00 TRACK 03 AUDIO TITLE "The Days of the Underground {First Version}" PERFORMER "Hawkwind" INDEX 00 11:21:09FILE "03 - The Days of the Underground {First Version}.wav" WAVE INDEX 01 00:00:00 TRACK 04 AUDIO TITLE "Quark,Strangeness & Charm / Uncle Sam's on Mars" PERFORMER "Hawkwind" INDEX 00 05:37:43FILE "04 - Quark,Strangeness & Charm , Uncle Sam's on Mars.wav" WAVE INDEX 01 00:00:00 TRACK 05 AUDIO TITLE "Fable of a Failed Race {Extended Version}" PERFORMER "Hawkwind" INDEX 00 09:17:73FILE "05 - Fable of a Failed Race {Extended Version}.wav" WAVE INDEX 01 00:00:00 TRACK 06 AUDIO TITLE "Damnation Alley {Alternate Harmony Vocal Version}" PERFORMER "Hawkwind" INDEX 00 06:48:28FILE "06 - Damnation Alley {Alternate Harmony Vocal Version}.wav" WAVE INDEX 01 00:00:00 TRACK 07 AUDIO TITLE "Spirit of the Age {Live Recording 1977}" PERFORMER "Hawkwind" INDEX 00 08:23:06FILE "07 - Spirit of the Age {Live Recording 1977}.wav" WAVE INDEX 01 00:00:00 TRACK 08 AUDIO TITLE "Robot" PERFORMER "Hawkwind" INDEX 00 05:54:54FILE "08 - Robot.wav" WAVE INDEX 01 00:00:00 TRACK 09 AUDIO TITLE "High Rise {Live Recording 1977}" PERFORMER "Hawkwind" INDEX 00 05:57:19FILE "09 - High Rise {Live Recording 1977}.wav" WAVE INDEX 01 00:00:00
ПРОДОЛЖЕНИЕ В ПЕРВОМ ПОСТЕ
Other forum [Profile] [PM]

Dracula

Longevity: 6 years 1 month

Posts: 10710

Торрент-статистика

Post 26-Jun-2013 05:11 (after 8 hours)

Топик был перенесен из форума Rock в форум Rock


p2000s
 
Display posts from previous:    
Reply to topic

The time now is: Today 14:19

All times are GMT + 3 Hours



You cannot post new topics in this forum
You cannot reply to topics in this forum
You cannot edit your posts in this forum
You cannot delete your posts in this forum
You cannot vote in polls in this forum
You cannot attach files in this forum
You cannot download files in this forum