Сегодня идет свободное скачивание без начисления Download

Гриффины / Family Guy / Сезон: 10 / Серии: 1-16 из 23 (Сет МакФарлейн) [2011-2012, Комедия, Пародия, Сатира, SATRip] MVO

Ответить на тему
 
Автор
Сообщение

Omen ®

Стаж: 5 лет

Сообщений: 190529

Торрент-статистика

Пост 25-Июн-2013 12:35

[Цитировать]

Гриффины / Family Guy
Страна: США
Жанр: Комедия, Пародия, Сатира
Продолжительность: ~20 минут
Год выпуска: 2011-2012
Перевод: Профессиональный (многоголосый закадровый)
Русские субтитры: нет
Режиссёр: Сет МакФарлейн
Роли озвучивали: Олег Форостенко - Питер, Кливленд и другие.
Илья Хвостиков - Брайан, Стьюи, Куагмир и другие.
Людмила Ильина - все женские и детские роли.
Описание: "Гриффины" (Family Guy) - анимационное ТВ-Шоу, созданное Сетом МакФерлайном (Seth MacFarlane) для телеканала FOX. Как нетрудно догадаться, главными героями шоу является семейка Гриффинов: тупой, но полный сумашедших идей, составляющих львиную долю шуток сериала, отец семейства Питер; его любящя и терпеливая жена Лойс, всеми силами пытающаяся превратить Гриффинов в нормальную семью; их интеллектуально развитый не по годам, вынашивающий идею мирового господства младший сын Стьюи; дочь-ботаник, обречённая из-за этого на одиночество и непонимание как в школе так и дома, Мэг; и 13-ти летний отсталый в развитии лет на 10, сын Крис. Также полноценным членом семьи является пёс Брайн - склонный к меланхолии эстет, спокойно наблюдающий с бокалом вина в лапе над приключениями Питера и остальных членов семьи (и это при всём притом, что остальные собаки в сериале не являются очеловеченными).
Список серий:
01. Lottery Fever (Лотерейная лихорадка)
02. Seahorse Seashell Party (Ураган)
03. Screams of Silence The Story of Brenda Q (Крики тишины: История Бренды Куагмир)
04. Stewie Goes for a Drive (Стьюи Хочет Покататься)
05. Back to Pilot (Возвращение в пилотную серию)
06. Thanksgiving (День Благодарения)
07. Amish Guy (Гриффины и амиши)
08. Cool Hand Peter (Хладнокровный Питер)
09. Grumpy Old Man (Сварливый Старик)
10. Quagmire and Meg (Куагмир и Мег)
11. The Blind Side (Слепая сторона)
12. Livin' on a Prayer (Жизнь по молитве)
13. Tom Tucker: The Man and His Dream (Том Такер: Человек с Мечтой)
14. Be Careful What You Fish For (Осторожно - рыба)
15. Burning Down the Bayit (Поджарим Еврея)
16. Killer Queen (Queen-убийца)
Доп. информация: Новый сезон мультсериала "Гриффины" в переводе 2х2, уже третий в нынешнем телесезоне канала. Новый сезон озвучивают новые актёры, тем не менее озвучка очень даже неплохая, рекомендую к просмотру.
Также спасибо человеку с ником "darba", предоставившему записи 2-4 серий нового сезона, без которых раздача могла бы не начаться.
Качество: SATRip
Формат: AVI
Видео: 720х416 (1 серия), 640х480 (2-4 серии) 704х576 (с 5 серии)
Аудио: 192 кбит/сек
Субтитры: отсутствуют

Подробные технические данные

GeneralComplete name : C:\Documents and Settings\Admin\Мои документы\Гриффины 10\05. Back to the Pilot.aviFormat : AVIFormat/Info : Audio Video InterleaveFile size : 248 MiBDuration : 20mn 26sOverall bit rate : 1 698 KbpsWriting application : Lavf52.61.0
VideoID : 0Format : MPEG-4 VisualFormat profile : Simple@L1Format settings, BVOP : NoFormat settings, QPel : NoFormat settings, GMC : No warppointsFormat settings, Matrix : Default (H.263)Codec ID : XVIDCodec ID/Hint : XviDDuration : 20mn 26sBit rate : 1 494 KbpsWidth : 704 pixelsHeight : 576 pixelsDisplay aspect ratio : 4:3Frame rate : 25.000 fpsStandard : PALColor space : YUVChroma subsampling : 4:2:0Bit depth : 8 bitsScan type : ProgressiveCompression mode : LossyBits/(Pixel*Frame) : 0.147Stream size : 218 MiB (88%)Writing library : Lavc52.66.0
AudioID : 1Format : MPEG AudioFormat version : Version 1Format profile : Layer 3Mode : Joint stereoMode extension : MS StereoCodec ID : 55Codec ID/Hint : MP3Duration : 20mn 26sBit rate mode : ConstantBit rate : 192 KbpsChannel(s) : 2 channelsSampling rate : 44.1 KHzCompression mode : LossyStream size : 28.1 MiB (11%)Alignment : Aligned on interleavesInterleave, duration : 26 ms (0.65 video frame)

Скриншоты



Вне форума [Профиль] [ЛС]
Показать сообщения:    
Ответить на тему

Текущее время: Сегодня 12:21

Часовой пояс: GMT + 3



Вы не можете начинать темы
Вы не можете отвечать на сообщения
Вы не можете редактировать свои сообщения
Вы не можете удалять свои сообщения
Вы не можете голосовать в опросах
Вы не можете прикреплять файлы к сообщениям
Вы не можете скачивать файлы