Сегодня идет свободное скачивание без начисления Download

Уилфред / Wilfred (Сезон 3 Эпизод 1 (13)) [2013] WEB-DL 720p (Кубик в Кубе) [Обновляемая]

Ответить на тему
 
Автор
Сообщение

UndegraundMen ®

Стаж: 5 лет 8 месяцев

Сообщений: 25860

Торрент-статистика

Пост 25-Июн-2013 04:34

[Цитировать]

Уилфред / Wilfred (Сезон 3 Эпизод 1 (13)) [2013] WEB-DL 720p (Кубик в Кубе) [Обновляемая]-
Русское название: Уилфред
Оригинальное название: Wilfred
Год выпуска: 2013
Жанр: Комедия-Режиссер: Рэндолл Айнхорн / Randall Einhorn, Виктор Нелли мл. / Victor Nelli Jr.
Актеры: Элайджа Вуд / Elijah Wood, Джейсон Гэнн / Jason Gann, Фиона Габелманн / Fiona Gubelmann, Дориан Браун / Dorian Brown, Крис Клейн / Chris Klein
Описание фильма:
Сюжет строится вокруг молодого человека по имени Райан, который ухаживает за девушкой — хозяйкой пса по кличке Уилфред. Пес и молодой человек не нравятся друг другу с первого взгляда. Дело осложняется тем, что вместо собаки Райан видит человека в собачьем костюме, который с ним разговаривает.-Перевод: Двухголосый закадровый, профессиональный
Озвучка / Автор перевода: Кубик в Кубе
Вид субтитров: Вшитые отлючаемые
Язык субтитров: Английский
Продолжительность: ~00:25:00
Релиз:
Работа со звуком: ЛП-
Сэмпл: -Качество: WEB-DL 720p
Видео: MKV, 1280x718 (1.80:1), 23.976 fps, 4000 kbps avg
Звук:
Audio Rus: 48 kHz, AC3 Dolby Digital, 3/2 (L,C,R,l,r) + LFE ch, ~384 kbps
Audio Eng: 48 kHz, AC3 Dolby Digital, 3/2 (L,C,R,l,r) + LFE ch, ~384 kbps
-

Отчет MediaInfo:

Полное имя : F:\Сериал\раздача\Wilfred.s03.720p\Wilfred.s03e01.rus.eng.720p.CasStudio.TV.mkv
Формат : Matroska
Версия формата : Version 4 / Version 2
Размер файла : 779 Мбайт
Продолжительность : 22 м.
Общий поток : 4923 Кбит/сек
Дата кодирования : UTC 2013-06-24 16:02:10
Программа кодирования : mkvmerge v6.0.0 ('Coming Up For Air') built on Jan 20 2013 09:52:00
Библиотека кодирования : libebml v1.3.0 + libmatroska v1.4.0
Видео
Идентификатор : 1
Формат : AVC
Формат/Информация : Advanced Video Codec
Профиль формата : [url=mailto:High@L3.1]High@L3.1[/url]
Параметр CABAC формата : Нет
Параметр ReFrames формата : 2 кадра
Параметры GOP формата : M=2, N=24
Идентификатор кодека : V_MPEG4/ISO/AVC
Продолжительность : 22 м.
Битрейт : 4057 Кбит/сек
Ширина : 1280 пикс.
Высота : 718 пикс.
Соотношение сторон : 16:9
Частота кадров : 23,976 кадр/сек
Цветовое пространство : YUV
Подвыборка цветности : 4:2:0
Битовая глубина : 8 бит
Тип развёртки : Прогрессивная
Бит/(Пиксели*Кадры) : 0.184
Размер потока : 642 Мбайт (82%)
Основные цвета : BT.709-5, BT.1361, IEC 61966-2-4, SMPTE RP177
Характеристики трансфера : BT.709-5, BT.1361
Коэффициенты матрицы : BT.709-5, BT.1361, IEC 61966-2-4 709, SMPTE RP177
Аудио #1
Идентификатор : 2
Формат : AC-3
Формат/Информация : Audio Coding 3
Расширение режима : CM (complete main)
Идентификатор кодека : A_AC3
Продолжительность : 22 м.
Вид битрейта : Постоянный
Битрейт : 384 Кбит/сек
Каналы : 6 каналов
Расположение каналов : Front: L C R, Side: L R, LFE
Частота : 48,0 КГц
Битовая глубина : 16 бит
Метод сжатия : С потерями
Размер потока : 60,8 Мбайт (8%)
Язык : Russian
Аудио #2
Идентификатор : 3
Формат : AC-3
Формат/Информация : Audio Coding 3
Расширение режима : CM (complete main)
Идентификатор кодека : A_AC3
Продолжительность : 22 м.
Вид битрейта : Постоянный
Битрейт : 384 Кбит/сек
Каналы : 6 каналов
Расположение каналов : Front: L C R, Side: L R, LFE
Частота : 48,0 КГц
Битовая глубина : 16 бит
Метод сжатия : С потерями
Размер потока : 60,8 Мбайт (8%)
Язык : English
Текст
Идентификатор : 4
Формат : UTF-8
Идентификатор кодека : S_TEXT/UTF8
Идентификатор кодека/Информация : UTF-8 Plain Text
Язык : English

Внимание! Раздача ведётся путём добавления новых серий

Внимание! Раздача ведётся путём добавления новых серий; при каждом добавлении создаётся новый торрент. Чтобы начать докачку новой серии, пользователям необходимо сделать следующее:
(1) остановить скачивание,
(2) удалить старый торрент у себя из клиента (старые серии удалять не надо),
(3) скачать новый торрент и запустить его у себя в клиенте вместо старого, при этом указать клиенту путь в старую папку куда и должно происходить скачивание новых серий.
Ваш клиент при этом должен произвести хеширование (проверку) старой папки (если не производит сам - помогите ему сделать это), и будет докачивать только те серии которых у вас ещё нет. Старые серии при этом не удаляются, а продолжают раздаваться!
Eсли вы уже удалили старые серии, то предотвратить повторную закачку старых серий можно, отжав галочку в соответствующих местах при запуске нового торрента. По возможности, желательно не удалять старые серии как можно дольше чтобы релизёр не столько продолжал раздавать старые серии, а смог сконцентрироваться на новых.
Скриншоты:
       
       
Время раздачи: с 9.00 до 23.00, до первых пяти скачавших
Вне форума [Профиль] [ЛС]
Показать сообщения:    
Ответить на тему

Текущее время: Сегодня 18:14

Часовой пояс: GMT + 3



Вы не можете начинать темы
Вы не можете отвечать на сообщения
Вы не можете редактировать свои сообщения
Вы не можете удалять свои сообщения
Вы не можете голосовать в опросах
Вы не можете прикреплять файлы к сообщениям
Вы не можете скачивать файлы