Сегодня идет свободное скачивание без начисления Download

На старт! / Go on! [Сезон 1 полный (22 серии)] (2012) WEB-DLRip (FOX)

Ответить на тему
 
Автор
Сообщение

UndegraundMen ®

Стаж: 5 лет 8 месяцев

Сообщений: 25860

Торрент-статистика

Пост 25-Июн-2013 04:34

[Цитировать]

На старт! / Go on! [Сезон 1] (2012) WEB-DLRip (FOX)- Русское название: На старт!
Оригинальное название: Go on!
Год выпуска: 2012
Жанр: Комедия
Перевод: Двуголосый закадровый, профессиональный
Озвучка / Автор перевода: FOX
Вид субтитров: Отсутствуют

Режиссер: Тодд Холлэнд, Джеми Бэббит, Кевин Даулинг, Майкл Леманн
Актеры: Мэттью Перри, Лаура Бенанти, Джули Уайт, Сьюзи Накамура, Тайлер Джеймс Уильямс, Бретт Гельман, Саймон Филлипс, Джон Чо, Сара Бэйкер, Эллисон Миллер и др.
Описание фильма:
Главный герой — хамоватый, но обаятельный ведущий спортивных новостей, который пытается оправиться от потери и находит поддержку в тех, с кем ему приходится ходить на групповую терапию.
Продолжительность: ~ 00:20:00 серия
Качество видео: WEB-DLRip
СЭМПЛ
Видеокодек: Xvid
Аудиокодек: AC3, 2 ch
Размер кадра: 720x400
Битрейт видео: ~1149 kbps
Аудио Rus: ~192 kbps |FOX|
Аудио Eng: ~192 kbps |Original|-

MediaInfo

Общее
Формат: AVI
Формат/Информация: Audio Video Interleave
Размер файла: 250 Мбайт
Продолжительность: 22 м.
Общий поток: 1547 Кбит/сек
Программа кодирования: VirtualDubMod 1.5.10.2 (build 2540/release)
Библиотека кодирования: VirtualDubMod build 2540/release
Видео
Идентификатор: 0
Формат: MPEG-4 Visual
Профиль формата: Advanced Simple@L5
Параметр BVOP формата: 1
Параметр QPel формата: Нет
Параметр GMC формата: Без точки перехода
Параметр матрицы формата: Выборочная
Идентификатор кодека: XVID
Идентификатор кодека/Подсказка: XviD
Продолжительность: 22 м.
Битрейт: 1149 Кбит/сек
Ширина: 720 пикселей
Высота: 400 пикселей
Соотношение сторон: 16:9
Частота кадров: 25,000 кадров/сек
Цветовое пространство: YUV
Субдискретизация насыщенности: 4:2:0
Битовая глубина: 8 бит
Тип развёртки: Прогрессивная
Метод сжатия: С потерями
Бит/(Пиксели*Кадры): 0.160
Размер потока: 186 Мбайт (74%)
Библиотека кодирования: XviD 73
Аудио #1
Идентификатор: 1
Формат: AC-3
Формат/Информация: Audio Coding 3
Расширение режима: CM (complete main)
Параметр Endianness формата: Big
Идентификатор кодека: 2000
Продолжительность: 22 м.
Вид битрейта: Постоянный
Битрейт: 192 Кбит/сек
Каналы: 2 канала
Расположение каналов: Front: L R
Частота: 48,0 КГц
Битовая глубина : 16 бит
Метод сжатия: С потерями
Размер потока: 31,1 Мбайт (12%)
Выравнивание: Разделение по промежуткам
Продолжительность промежутка: 40 мс. (1,00 видеокадр)
Время предзагрузки промежутка: 500 мс.
Аудио #2
Идентификатор: 2
Формат: AC-3
Формат/Информация: Audio Coding 3
Расширение режима: CM (complete main)
Параметр Endianness формата: Big
Идентификатор кодека: 2000
Продолжительность: 22 м.
Вид битрейта: Постоянный
Битрейт: 192 Кбит/сек
Каналы: 2 канала
Расположение каналов: Front: L R
Частота: 48,0 КГц
Битовая глубина: 16 бит
Метод сжатия: С потерями
Размер потока: 31,1 Мбайт (12%)
Выравнивание: Разделение по промежуткам
Продолжительность промежутка: 40 мс. (1,00 видеокадр)
Время предзагрузки промежутка: 500 мс.

-

Внимание! Раздача ведётся путём добавления новых серий!

Внимание! Раздача ведётся путём добавления новых серий; при каждом добавлении создаётся новый торрент.
Чтобы начать докачку новой серии, пользователям необходимо сделать следующее:
(1) остановить скачивание;
(2) удалить старый торрент у себя из клиента (старые серии удалять не надо);
(3) скачать новый торрент и запустить его у себя в клиенте вместо старого, при этом указать клиенту путь в старую папку куда и должно происходить скачивание новых серий.Ваш клиент при этом должен произвести хеширование (проверку) старой папки (если не производит сам - помогите ему сделать это), и будет докачивать только те серии которых у вас ещё нет. Старые серии при этом не удаляются, а продолжают раздаваться!Eсли вы уже удалили старые серии, то предотвратить повторную закачку старых серий можно, отжав галочку в соответствующих местах при запуске нового торрента.
-Скриншоты:
       
Вне форума [Профиль] [ЛС]
Показать сообщения:    
Ответить на тему

Текущее время: Сегодня 11:52

Часовой пояс: GMT + 3



Вы не можете начинать темы
Вы не можете отвечать на сообщения
Вы не можете редактировать свои сообщения
Вы не можете удалять свои сообщения
Вы не можете голосовать в опросах
Вы не можете прикреплять файлы к сообщениям
Вы не можете скачивать файлы