Сегодня идет свободное скачивание без начисления Download

Ганнибал / Hannibal (Сезон: 1 / Серии: 13 из 13) [Гильермо Наварро, Майкл Раймер, Дэвид Слэйд] (детектив, криминал, драма, 2013) WEB-DL 720p

Ответить на тему
 
Автор
Сообщение

Omen ®

Стаж: 5 лет 11 месяцев

Сообщений: 184329

Торрент-статистика

Пост 22-Июн-2013 20:16

[Цитировать]

Ганнибал / Hannibal
«Как всё начиналось...»
- Русское название: Ганнибал
Оригинальное название: Hannibal
Год выпуска: 2013
Страна: США
Жанр: детектив, криминал, драма
Продолжительность: ~ 00:44:00
Перевод: Профессиональный (многоголосый, закадровый) - BaibaKo
Язык субтитров: английский
Режиссёры: Гильермо Наварро, Майкл Раймер, Дэвид Слэйд
В ролях: Мадс Миккельсен, Хью Дэнси, Каролин Давернас, Лара Жан Чоростецки, Аарон Абрамс, Лоренс Фишбёрн, Эттьенн Парк, Скотт Томпсон, Торианна Ли, Демор Барнс
Описание:
Уилл Грэхэм — одаренный профайлер, который вместе с ФБР разыскивает серийного убийцу. Уникальный способ мышления Грэхэма дает ему удивительную способность глубоко проникаться чувствами другого человека, даже психопата. Он может понять, что ими движет. Но когда ум преследуемого убийцы оказывается слишком сложным, он прибегает к помощи доктора Лектера, одного из ведущих психиатрических умов в стране. В то время как Уилл охотится за жестокими преступниками, он и понятия не имеет, что каждый день имеет дело с самым одаренным из них.


Озвучка: Александр Фурман, Алексей Кузнецов, Юлия Котурбаш и Татьяна Оболевич
Автор перевода: Вячеслав Лоев, Бюро переводов СМ-Груп (Мария Матвейчук и Анна Старинец)
Обложка: tvblog
Качество: WEB-DL 720p
Формат: MKV
Видео кодек: AVC
Аудио кодек: AC3
Видео: AVC, 1280x718, 23.976 fps, ~4000 kbps (0.180 bit/pixel)
Аудио Rus: AC-3 6 каналов, 48,0 КГц 384 Кбит/сек |BaibaKo|
Аудио Eng: AC-3 6 каналов, 48,0 КГц 384 Кбит/сек |Original|

Список серий


01. Aperitif (Аперитив)
02. Amuse-Bouche (Затравка)
03. Potage / Суп
04. Ceuf / Яичница (6 веб-серий отменённого эпизода склеенные в одну)
05. Coquilles (Блюдо в ракушке)
06. Entree (Основное блюдо)
07. Sorbet (Холодный десерт)
08. Fromage (Сыр)
09. Trou Normand Нормандская дыра (Перерыв на глоток спиртного)
10. Buffet Froid (Холодные закуски)
11. Roti (Жаркое)
12. Releves Релеве (Сменное блюдо перед основным)
13. Savoureux (Десерт)

Раздача ведётся путём добавления новых серий

Раздача ведётся путём добавления новых серий; при каждом добавлении создаётся новый торрент. Чтобы начать докачку новой серии, пользователям необходимо сделать следующее:
(1) остановить скачивание,
(2) удалить старый торрент у себя из клиента (старые серии удалять не надо),
(3) скачать новый торрент и запустить его у себя в клиенте вместо старого, при этом указать клиенту путь в старую папку куда и должно происходить скачивание новых серий.
Ваш клиент при этом должен произвести хеширование (проверку) старой папки (если не производит сам - помогите ему сделать это), и будет докачивать только те серии которых у вас ещё нет. Старые серии при этом не удаляются, а продолжают раздаваться!
Eсли вы уже удалили старые серии, то предотвратить повторную закачку старых серий можно, отжав галочку в соответствующих местах при запуске нового торрента. По возможности, желательно не удалять старые серии как можно дольше чтобы релизёр не столько продолжал раздавать старые серии, а смог сконцентрироваться на новых.

MediaInfo

Код:
Полное имя                               : E:\фильм\Hannibal.s01\Hannibal.s01e01.HD720p.mkv
Формат                                   : Matroska
Версия формата                           : Version 2
Размер файла                             : 1,42 Гбайт
Продолжительность                        : 42 м.
Общий поток                              : 4716 Кбит/сек
Дата кодирования                         : UTC 2013-04-06 06:50:58
Программа кодирования                    : mkvmerge v4.6.0 ('Still Crazy After All These Years') сборка от Apr  1 2011 21:01:49
Библиотека кодирования                   : libebml v1.2.0 + libmatroska v1.1.0
Видео
Идентификатор                            : 1
Формат                                   : AVC
Формат/Информация                        : Advanced Video Codec
Профиль формата                          : [url=mailto:High@L3.1]High@L3.1[/url]
Параметр CABAC формата                   : Нет
Параметр ReFrames формата                : 2 кадра
Идентификатор кодека                     : V_MPEG4/ISO/AVC
Продолжительность                        : 42 м.
Битрейт                                  : 3855 Кбит/сек
Ширина                                   : 1280 пикселей
Высота                                   : 718 пикселей
Соотношение сторон                       : 16:9
Частота кадров                           : 23,976 кадра/сек
Цветовое пространство                    : YUV
Субдискретизация насыщенности            : 4:2:0
Битовая глубина                          : 8 бит
Тип развёртки                            : Прогрессивная
Бит/(Пиксели*Кадры)                      : 0.175
Размер потока                            : 1,16 Гбайт (82%)
Язык                                     : English
Default                                  : Да
Forced                                   : Нет
Основные цвета                           : BT.709-5, BT.1361, IEC 61966-2-4, SMPTE RP177
Характеристики трансфера                 : BT.709-5, BT.1361
Коэффициенты матрицы                     : BT.709-5, BT.1361, IEC 61966-2-4 709, SMPTE RP177
Аудио #1
Идентификатор                            : 2
Формат                                   : AC-3
Формат/Информация                        : Audio Coding 3
Расширение режима                        : CM (complete main)
Идентификатор кодека                     : A_AC3
Продолжительность                        : 42 м.
Вид битрейта                             : Постоянный
Битрейт                                  : 384 Кбит/сек
Каналы                                   : 6 каналов
Расположение каналов                     : Front: L C R, Side: L R, LFE
Частота                                  : 48,0 КГц
Битовая глубина                          : 16 бит
Метод сжатия                             : С потерями
Размер потока                            : 118 Мбайт (8%)
Заголовок                                : Hannibal.s01e01.HD1080p.WEB-DL.Rus.Eng.BaibaKo.tv_track2
Язык                                     : Russian
Default                                  : Да
Forced                                   : Нет
Аудио #2
Идентификатор                            : 3
Формат                                   : AC-3
Формат/Информация                        : Audio Coding 3
Расширение режима                        : CM (complete main)
Идентификатор кодека                     : A_AC3
Продолжительность                        : 42 м.
Вид битрейта                             : Постоянный
Битрейт                                  : 384 Кбит/сек
Каналы                                   : 6 каналов
Расположение каналов                     : Front: L C R, Side: L R, LFE
Частота                                  : 48,0 КГц
Битовая глубина                          : 16 бит
Метод сжатия                             : С потерями
Размер потока                            : 118 Мбайт (8%)
Язык                                     : English
Default                                  : Нет
Forced                                   : Нет
Текст
Идентификатор                            : 4
Формат                                   : UTF-8
Идентификатор кодека                     : S_TEXT/UTF8
Идентификатор кодека/Информация          : UTF-8 Plain Text
Заголовок                                : CC
Язык                                     : English
Default                                  : Да
Forced                                   : Нет
640347
Скриншоты:
       
       
Вне форума [Профиль] [ЛС]
Показать сообщения:    
Ответить на тему

Текущее время: Сегодня 18:46

Часовой пояс: GMT + 3



Вы не можете начинать темы
Вы не можете отвечать на сообщения
Вы не можете редактировать свои сообщения
Вы не можете удалять свои сообщения
Вы не можете голосовать в опросах
Вы не можете прикреплять файлы к сообщениям
Вы не можете скачивать файлы