Сегодня идет свободное скачивание без начисления Download

Особо Опасные Преступления / Особо тяжкие преступления / Major Crimes (2012) HDTVRip (Сезон 1(полный) / Серии 10 из 10) DreamRecords

Ответить на тему
 
Автор
Сообщение

UndegraundMen ®

Стаж: 5 лет 6 месяцев

Сообщений: 25861

Торрент-статистика

Пост 22-Июн-2013 03:27

[Цитировать]

Особо Опасные Преступления / Особо тяжкие преступления / Major Crimes (2012) HDTVRip (Сезон 1(полный) / Серии 10 из 10) DreamRecords- Русское название: Особо Опасные Преступления / Особо тяжкие преступления
Оригинальное название: Major Crimes
Год выпуска: 2012
Страна: США
Жанр: Драма, Криминал, Детектив
Перевод: Двуголосый закадровый, профессиональный
Автор перевода: _HighFlyer, ono66, wdata
Озвучка: Christh & eske
Сведение: LeX
Релиз группа: DreamRecords

Режиссер: Дэвид МакУиртер, Стив Робин
Актеры: Дж. У. Бейли, Грэхэм Патрик Мартин, Мэри МакДоннелл, Энтони Джон Дэнисон, Майкл Пол Чан, Рэймонд Крус, Филлип П. Кин, Кирран Джованни. Джонатан Дель Арко, Рэнсфорд Доэрти и др.
Описание фильма:
Продолжение сериала Ищейка. После увольнения Бренды Ли Джонсон руководство Отделом особо опасных преступлений полиции Лос-Анджелеса берёт в свои руки капитан Рэйдор. Однако героине предстоит работать в команде, которая заранее испытывает к ней антипатию — ведь антипатию к ней всегда испытывала шеф Джонсон.
Продолжительность: 10 серий по ~00:43
Качество видео: HDTVRip
Видеокодек: Xvid
Формат: AVI
Битрейт видео: ~1294 kb/s
Размер кадра: 720x400 (16:9)
Аудио: MP3, 48,0 kHz, 2 ch, 224 kb/s Сэмпл

MediaInfo

Общее
Полное имя : D:\Downloads\Особо опасные преступления (Сезон 1) Major Crimes (2012) HDTVRip - DreamRecords\Major.Crimes.S01E01.HDTVRip 400p.XviD [DreamRecords].avi
Формат : AVI
Формат/Информация : Audio Video Interleave
Размер файла : 467 Мбайт
Продолжительность : 42 м.
Общий поток : 1527 Кбит/сек
Программа кодирования : VirtualDubModRus 1.5.10.2 (build 2542/release)
Библиотека кодирования : VirtualDubMod build 2542/release
Видео
Идентификатор : 0
Формат : MPEG-4 Visual
Профиль формата : Advanced Simple@L5
Параметр BVOP формата : 1
Параметр QPel формата : Нет
Параметр GMC формата : Без точки перехода
Параметр матрицы формата : Default (MPEG)
Идентификатор кодека : XVID
Идентификатор кодека/Подсказка : XviD
Продолжительность : 42 м.
Битрейт : 1294 Кбит/сек
Ширина : 720 пикселей
Высота : 400 пикселей
Соотношение сторон : 16:9
Частота кадров : 23,976 кадра/сек
Цветовое пространство : YUV
Субдискретизация насыщенности : 4:2:0
Битовая глубина : 8 бит
Тип развёртки : Прогрессивная
Метод сжатия : С потерями
Бит/(Пиксели*Кадры) : 0.187
Размер потока : 396 Мбайт (85%)
Библиотека кодирования : XviD 64
Аудио
Идентификатор : 1
Формат : MPEG Audio
Версия формата : Version 1
Профиль формата : Layer 3
Режим : Joint stereo
Идентификатор кодека : 55
Идентификатор кодека/Подсказка : MP3
Продолжительность : 42 м.
Вид битрейта : Постоянный
Битрейт : 224 Кбит/сек
Каналы : 2 канала
Частота : 48,0 КГц
Метод сжатия : С потерями
Размер потока : 68,6 Мбайт (15%)
Выравнивание : Соединение по промежуткам
Продолжительность промежутка : 42 мс. (1,00 видеокадр)
Время предзагрузки промежутка : 504 мс.
Скриншоты:
       
Вне форума [Профиль] [ЛС]
Показать сообщения:    
Ответить на тему

Текущее время: Сегодня 07:04

Часовой пояс: GMT + 3



Вы не можете начинать темы
Вы не можете отвечать на сообщения
Вы не можете редактировать свои сообщения
Вы не можете удалять свои сообщения
Вы не можете голосовать в опросах
Вы не можете прикреплять файлы к сообщениям
Вы не можете скачивать файлы