Сегодня идет свободное скачивание без начисления Download

Особо Опасные Преступления / Особо тяжкие преступления / Major Crimes (2013) WEB-DLRip (Сезон 2 / Серии 1 из 10) DreamRecords (Обновляемая)

Ответить на тему
 
Автор
Сообщение

UndegraundMen ®

Стаж: 5 лет 3 месяца

Сообщений: 25871

Торрент-статистика

Пост 22-Июн-2013 03:27

[Цитировать]

Особо Опасные Преступления / Особо тяжкие преступления / Major Crimes (2013) WEB-DLRip (Сезон 2 / Серии 1 из 10) DreamRecords (Обновляемая)- Русское название: Особо Опасные Преступления / Особо тяжкие преступления
Оригинальное название: Major Crimes
Год выпуска: 2013
Жанр: Драма, Криминал, Детектив
Перевод: Двуголосый закадровый, профессиональный
Автор леревода: Константин Кривоногов
Озвучка: Владимир Чистохин, Маргарита Ремейкайте
Сведение: Фокин Алексей
Релиз группа: DreamRecords

Режиссер: Дэвид МакУиртер, Стив Робин
Актеры: Дж. У. Бейли, Грэхэм Патрик Мартин, Мэри МакДоннелл, Энтони Джон Дэнисон, Майкл Пол Чан, Рэймонд Крус, Филлип П. Кин, Кирран Джованни. Джонатан Дель Арко, Рэнсфорд Доэрти и др.
Описание фильма:
Продолжение сериала «Ищейка». После увольнения Бренды Ли Джонсон руководство Отделом особо опасных преступлений полиции Лос-Анджелеса берёт в свои руки капитан Рэйдор. Однако героине предстоит работать в команде, которая заранее испытывает к ней антипатию — ведь антипатию к ней всегда испытывала шеф Джонсон.
Продолжительность: 10 серий по ~00:43
Качество видео: WEB-DLRip
Видеокодек: Xvid
Формат: AVI
Битрейт видео: ~1296 kb/s
Размер кадра: 720x400 (16:9)
Аудио: MP3, 48,0 kHz, 2 ch, 192 kb/s Сэмпл

MediaInfo

Общее
Полное имя : D:\Downloads\Особо опасные преступления (Сезон 2) Major Crimes (2013) HDTVRip - DreamRecords\Major.Crimes.S02E01.400p.WEB-DLRip.XviD-[DreamRecords].avi
Формат : AVI
Формат/Информация : Audio Video Interleave
Размер файла : 459 Мбайт
Продолжительность : 42 м.
Общий поток : 1497 Кбит/сек
Программа кодирования : VirtualDubModRus 1.5.10.2 (build 2542/release)
Библиотека кодирования : VirtualDubMod build 2542/release
Видео
Идентификатор : 0
Формат : MPEG-4 Visual
Профиль формата : Advanced Simple@L5
Параметр BVOP формата : 1
Параметр QPel формата : Нет
Параметр GMC формата : Без точки перехода
Параметр матрицы формата : Default (MPEG)
Идентификатор кодека : XVID
Идентификатор кодека/Подсказка : XviD
Продолжительность : 42 м.
Битрейт : 1296 Кбит/сек
Ширина : 720 пикселей
Высота : 400 пикселей
Соотношение сторон : 16:9
Частота кадров : 23,976 кадра/сек
Цветовое пространство : YUV
Субдискретизация насыщенности : 4:2:0
Битовая глубина : 8 бит
Тип развёртки : Прогрессивная
Метод сжатия : С потерями
Бит/(Пиксели*Кадры) : 0.188
Размер потока : 397 Мбайт (87%)
Библиотека кодирования : XviD 64
Аудио
Идентификатор : 1
Формат : MPEG Audio
Версия формата : Version 1
Профиль формата : Layer 3
Режим : Joint stereo
Идентификатор кодека : 55
Идентификатор кодека/Подсказка : MP3
Продолжительность : 42 м.
Вид битрейта : Постоянный
Битрейт : 192 Кбит/сек
Каналы : 2 канала
Частота : 48,0 КГц
Метод сжатия : С потерями
Размер потока : 58,8 Мбайт (13%)
Выравнивание : Соединение по промежуткам
Продолжительность промежутка : 42 мс. (1,00 видеокадр)
Время предзагрузки промежутка : 504 мс.

Раздача ведётся путём добавления новых серий

Раздача ведётся путём добавления новых серий; при каждом добавлении создаётся новый торрент. Чтобы начать докачку новой серии, пользователям необходимо сделать следующее:
(1) остановить скачивание,
(2) удалить старый торрент у себя из клиента (старые серии удалять не надо),
(3) скачать новый торрент и запустить его у себя в клиенте вместо старого, при этом указать клиенту путь в старую папку куда и должно происходить скачивание новых серий.
Ваш клиент при этом должен произвести хеширование (проверку) старой папки (если не производит сам - помогите ему сделать это), и будет докачивать только те серии которых у вас ещё нет. Старые серии при этом не удаляются, а продолжают раздаваться!
Eсли вы уже удалили старые серии, то предотвратить повторную закачку старых серий можно, отжав галочку в соответствующих местах при запуске нового торрента. По возможности, желательно не удалять старые серии как можно дольше чтобы релизёр не столько продолжал раздавать старые серии, а смог сконцентрироваться на новых.
Скриншоты:
       
Вне форума [Профиль] [ЛС]
Похожие темы
Форум Тема Автор Торрент Отв. Посл. сообщение
./templates/default/images/folder_dl.gif Медицина и Здоровье Лариса Кузьмина | Большой лечебник древних знахарей. Миллион народных способов лечения (2016) [FB2] }{@R0N
1 | 0

0 | 6016

16

2017-02-28 22:26
}{@R0N Последнее
Показать сообщения:    
Ответить на тему

Текущее время: Сегодня 06:27

Часовой пояс: GMT + 3



Вы не можете начинать темы
Вы не можете отвечать на сообщения
Вы не можете редактировать свои сообщения
Вы не можете удалять свои сообщения
Вы не можете голосовать в опросах
Вы не можете прикреплять файлы к сообщениям
Вы не можете скачивать файлы