Сегодня идет свободное скачивание без начисления Download

Футурама / Futurama / Сезон: 7 / Серии: 1-13 из 26 (Мэтт Гроунинг / Matt Groening) [2012, Мультфильм, фантастика, комедия, BDRip 1080p] DVO (Кубик в Кубе) + MVO (LostFilm) + Original + Subs (Rus Eng)

Ответить на тему
 
Автор
Сообщение

Omen ®

Стаж: 4 года 10 месяцев

Сообщений: 190643

Торрент-статистика

Пост 22-Июн-2013 00:43

[Цитировать]

Футурама / Futurama- Страна: США
Жанр: Фантастика, комедия
Продолжительность: 00:21:00
Год выпуска: 2012
Перевод:
  • Профессиональный (дхголосый закадовый) - Кубик в кубе.
  • Профессиональный (многоголосый закадровый) - LostFilm
Русские субтитры: есть [Futuramer, НФФС]
Режиссёр: Мэтт Гроунинг / Matt Groening
Роли озвучивали: Билли Уэст, Кейти Сэгал, Джон ДиМаджио, Фил ЛаМарр, Лоурэн Том и др.
Описание: Сериал начинается с того, что разносчик пиццы из Нью-Йорка Филипп Джей Фрай случайно, как это кажется на первый взгляд, был заморожен в криогенной камере ровно в 00 часов 00 минут 00 секунд 1 января 2000 года. Он был разморожен тысячу лет спустя, 31 декабря 2999 года, и обнаружил себя в городе будущего Нью-Нью-Йорке. Знакомясь со своей будущей коллегой Турангой Лилой, Фрай пытается избежать принудительного назначения на работу курьером, кем он и был в прошлой жизни, и внедрения ему карьерного чипа — микросхемы, вшиваемой под кожу и определяющей род занятий своего носителя. Лила, в это время работающая инспектором по раздаче профессий, догоняя Фрая, чтобы вживить ему чип, в результате выслушивания речей Фрая о его прошлой никчемной жизни курьером, отказывается от работы инспектора, которая ей не по душе, и вместе они находят очень дальнего потомка Фрая (его пра-пра-пра-…-пра-внучатого племянника) Хьюберта Фарнсворта — маразматичного 160-летнего гениального ученого-склеротика, который берет их на работу в свою небольшую компанию «Межпланетный экспресс», занимающуюся межгалактическими грузоперевозками, на должность курьера. «Межпланетный экспресс» — это маленький бизнес профессора, окупающий его гениальные, но иногда весьма сомнительные исследования и изобретения.
Список серий:
  • 7ACV01 The Bots and the Bees
  • 7ACV02 A Farewell to Arms
  • 7ACV03 Decision 3012
  • 7ACV04 The Thief of Baghead
  • 7ACV05 Zapp Dingbat
  • 7ACV06 The Butterjunk Effect
  • 7ACV07 The Six Million Dollar Mon
  • 7ACV08 Fun on a Bun
  • 7ACV09 Free Will Hunting
  • 7ACV10 Near-Death Wish
  • 7ACV12 Viva Mars Vegas
  • 7ACV11 31st Century Fox
  • 7ACV13 Naturama
Rip: CtrlHD
Синхронизация звука: Black_Scorpion_666
Качество: BDRip 1080p Sample
Формат: MKV
Видео: AVC (x264) | 1920x1080p | 23.976 fps | ~3 403 Kbps | 0.068 bit/pix
Аудио:
  • AC3 | 48KHz | 2.0 (Front: L R) | 192 kbps [RUS | DVO Кубик в Кубе]
  • AC3 | 48KHz | 2.0 (Front: L R) | 192 kbps [RUS | MVO LostFilm]
  • AC3 | 48KHz | 5.1 (Front: L C R, Side: L R, LFE) | 640 kbps [ENG | Original]
  • AC3 | 48KHz | 2.0 (Front: L R) | 224 kbps [ENG | Comentary 1]
  • AC3 | 48KHz | 2.0 (Front: L R) | 224 kbps [ENG | Comentary 2]
Субтитры: Русские [Futuramer (1-5), НФФС (1-13)], Английские (1-13)

Подробные технические данные

GeneralУникальный идентификатор : 218496496760588511770839204180869516248 (0xA460E5038E0A3B72A0AB0D90FEE80BD8)Полное имя : E:\VIDEOS\TV SHOWS\Futurama\Futurama.S07E01.The.Bots.and.the.Bees.1080p.BluRay.DD5.1.x264-BS666\Futurama.S07E02.A.Farewell.to.Arms.1080p.BluRay.DD5.1.x264-BS666.mkvФормат : MatroskaВерсия формата : Version 4 / Version 2Размер файла : 770 MiBПродолжительность : 21mn 38sОбщий поток : 4 974 KbpsНазвание фильма : 7ACV02Дата кодирования : UTC 2013-06-21 09:55:39Программа кодирования : mkvmerge v6.2.0 ('Promised Land') built on Apr 28 2013 12:22:01Библиотека кодирования : libebml v1.3.0 + libmatroska v1.4.0Attachment : Yes
VideoИдентификатор : 1Формат : AVCФормат/Информация : Advanced Video CodecПрофиль формата : High@L5.0Параметр CABAC формата : YesПараметр ReFrames формата : 5 framesИдентификатор кодека : V_MPEG4/ISO/AVCПродолжительность : 21mn 38sБитрейт : 3 403 KbpsШирина : 1 920 pixelsВысота : 1 080 pixelsСоотношение сторон : 16:9Режим частоты кадров : ConstantЧастота кадров : 23.976 fpsЦветовое пространство : YUVСубдискретизация насыщенности : 4:2:0Битовая глубина : 8 bitsТип развёртки : ProgressiveБит/(Пиксели*Кадры) : 0.068Размер потока : 527 MiB (68%)Библиотека кодирования : x264 core 129 r2245 bc13772Настройки программы : cabac=1 / ref=5 / deblock=1:-3:-3 / analyse=0x3:0x133 / me=tesa / subme=10 / psy=0 / mixed_ref=1 / me_range=24 / chroma_me=1 / trellis=2 / 8x8dct=1 / cqm=0 / deadzone=21,11 / fast_pskip=0 / chroma_qp_offset=0 / threads=12 / lookahead_threads=2 / sliced_threads=0 / nr=0 / decimate=1 / interlaced=0 / bluray_compat=0 / constrained_intra=0 / bframes=9 / b_pyramid=2 / b_adapt=2 / b_bias=0 / direct=2 / weightb=1 / open_gop=0 / weightp=2 / keyint=240 / keyint_min=23 / scenecut=40 / intra_refresh=0 / rc=crf / mbtree=0 / crf=17.5 / qcomp=0.60 / qpmin=0 / qpmax=69 / qpstep=4 / ip_ratio=1.40 / pb_ratio=1.30 / aq=2:0.60Язык : EnglishDefault : YesForced : No
Audio #1Идентификатор : 2Формат : AC-3Формат/Информация : Audio Coding 3Расширение режима : CM (complete main)Параметр Endianness формата : BigИдентификатор кодека : A_AC3Продолжительность : 21mn 38sВид битрейта : ConstantБитрейт : 192 KbpsКаналы : 2 channelsРасположение каналов : Front: L RЧастота : 48.0 KHzБитовая глубина : 16 bitsМетод сжатия : LossyРазмер потока : 29.7 MiB (4%)Заголовок : RUS - Kubik v KubeЯзык : RussianDefault : YesForced : No
Audio #2Идентификатор : 3Формат : AC-3Формат/Информация : Audio Coding 3Расширение режима : CM (complete main)Параметр Endianness формата : BigИдентификатор кодека : A_AC3Продолжительность : 21mn 38sВид битрейта : ConstantБитрейт : 192 KbpsКаналы : 2 channelsРасположение каналов : Front: L RЧастота : 48.0 KHzБитовая глубина : 16 bitsМетод сжатия : LossyРазмер потока : 29.7 MiB (4%)Заголовок : RUS - LostFilmЯзык : RussianDefault : NoForced : No
Audio #3Идентификатор : 4Формат : AC-3Формат/Информация : Audio Coding 3Расширение режима : CM (complete main)Параметр Endianness формата : BigИдентификатор кодека : A_AC3Продолжительность : 21mn 38sВид битрейта : ConstantБитрейт : 640 KbpsКаналы : 6 channelsРасположение каналов : Front: L C R, Side: L R, LFEЧастота : 48.0 KHzБитовая глубина : 16 bitsМетод сжатия : LossyРазмер потока : 99.0 MiB (13%)Заголовок : ENG - OriginalЯзык : EnglishDefault : NoForced : No
Audio #4Идентификатор : 5Формат : AC-3Формат/Информация : Audio Coding 3Расширение режима : CM (complete main)Параметр Endianness формата : BigИдентификатор кодека : A_AC3Продолжительность : 21mn 38sВид битрейта : ConstantБитрейт : 224 KbpsКаналы : 2 channelsРасположение каналов : Front: L RЧастота : 48.0 KHzБитовая глубина : 16 bitsМетод сжатия : LossyРазмер потока : 34.7 MiB (5%)Заголовок : ENG - Commentary 1Язык : EnglishDefault : NoForced : No
Audio #5Идентификатор : 6Формат : AC-3Формат/Информация : Audio Coding 3Расширение режима : CM (complete main)Параметр Endianness формата : BigИдентификатор кодека : A_AC3Продолжительность : 21mn 38sВид битрейта : ConstantБитрейт : 224 KbpsКаналы : 2 channelsРасположение каналов : Front: L RЧастота : 48.0 KHzБитовая глубина : 16 bitsМетод сжатия : LossyРазмер потока : 34.7 MiB (5%)Заголовок : ENG - Commentary 2Язык : EnglishDefault : NoForced : No
Text #1Идентификатор : 7Формат : UTF-8Идентификатор кодека : S_TEXT/UTF8Идентификатор кодека/Информация : UTF-8 Plain TextЗаголовок : RUS - FuturamerЯзык : RussianDefault : NoForced : No
Text #2Идентификатор : 8Формат : UTF-8Идентификатор кодека : S_TEXT/UTF8Идентификатор кодека/Информация : UTF-8 Plain TextЗаголовок : RUS - allsimpsonsЯзык : RussianDefault : NoForced : No
Text #3Идентификатор : 9Формат : UTF-8Идентификатор кодека : S_TEXT/UTF8Идентификатор кодека/Информация : UTF-8 Plain TextЗаголовок : ENGЯзык : EnglishDefault : NoForced : No
Menu00:00:00.000 : en:Chapter 0000:05:57.774 : en:Chapter 0100:13:43.948 : en:Chapter 0200:21:06.556 : en:Chapter 03

Скриншоты

Вне форума [Профиль] [ЛС]
Показать сообщения:    
Ответить на тему

Текущее время: Сегодня 20:39

Часовой пояс: GMT + 3



Вы не можете начинать темы
Вы не можете отвечать на сообщения
Вы не можете редактировать свои сообщения
Вы не можете удалять свои сообщения
Вы не можете голосовать в опросах
Вы не можете прикреплять файлы к сообщениям
Вы не можете скачивать файлы