Сегодня идет свободное скачивание без начисления Download

Футурама / Futurama / Сезон: 7 / Серии: 14-15 из 26 (Мэтт Гроунинг / Matt Groening) [2013, Фантастика, комедия, HDTVRip 720p] Rus Eng Sub

Ответить на тему
 
Автор
Сообщение

Omen ®

Стаж: 4 года 10 месяцев

Сообщений: 190643

Торрент-статистика

Пост 22-Июн-2013 00:43

[Цитировать]

Футурама / Futurama- Страна: США
Жанр: Фантастика, комедия
Продолжительность: 00:21:00
Год выпуска: 2013
Перевод: Субтитры: allsimpsons
Русские субтитры: есть
Режиссёр: Мэтт Гроунинг / Matt Groening
Роли озвучивали: Билли Уэст, Кейти Сэгал, Джон ДиМаджио, Фил ЛаМарр, Лоурэн Том и др.
Описание: Сериал начинается с того, что разносчик пиццы из Нью-Йорка Филипп Джей Фрай случайно, как это кажется на первый взгляд, был заморожен в криогенной камере ровно в 00 часов 00 минут 00 секунд 1 января 2000 года. Он был разморожен тысячу лет спустя, 31 декабря 2999 года, и обнаружил себя в городе будущего Нью-Нью-Йорке. Знакомясь со своей будущей коллегой Турангой Лилой, Фрай пытается избежать принудительного назначения на работу курьером, кем он и был в прошлой жизни, и внедрения ему карьерного чипа — микросхемы, вшиваемой под кожу и определяющей род занятий своего носителя. Лила, в это время работающая инспектором по раздаче профессий, догоняя Фрая, чтобы вживить ему чип, в результате выслушивания речей Фрая о его прошлой никчемной жизни курьером, отказывается от работы инспектора, которая ей не по душе, и вместе они находят очень дальнего потомка Фрая (его пра-пра-пра-…-пра-внучатого племянника) Хьюберта Фарнсворта — маразматичного 160-летнего гениального ученого-склеротика, который берет их на работу в свою небольшую компанию «Межпланетный экспресс», занимающуюся межгалактическими грузоперевозками, на должность курьера. «Межпланетный экспресс» — это маленький бизнес профессора, окупающий его гениальные, но иногда весьма сомнительные исследования и изобретения.
Список серий:
14 серия Двумерное шоссе
15 серия Бурная жизнь Фрая и Лилы
Качество: HDTVRip 720p
Формат: MKV
Видео: AVC (x264) | 1280x720p | 23.976 fps | 2 602 Kbps | 0.118bit/pix
Аудио: AC3 | 48KHz | 5.1 (6ch) | 384 kbps
Субтитры: Русские, Английские

Подробные технические данные

GeneralУникальный идентификатор : 44206101326053167598315816165440321496 (0x2141C911BBD9DE3F13E955D7565D77D8)Полное имя : E:\VIDEOS\TV SHOWS\Futurama\Futurama.S07.720p.HDTV.x264-EVOLVE\Futurama.S07E14.720p.HDTV.x264-EVOLVE.mkvФормат : MatroskaВерсия формата : Version 4 / Version 2Размер файла : 458 MiBПродолжительность : 21mn 0sОбщий поток : 3 047 KbpsДата кодирования : UTC 2013-06-20 02:38:09Программа кодирования : mkvmerge v6.0.0 ('Coming Up For Air') built on Jan 20 2013 10:28:01Библиотека кодирования : libebml v1.3.0 + libmatroska v1.4.0
VideoИдентификатор : 1Формат : AVCФормат/Информация : Advanced Video CodecПрофиль формата : High@L4.1Параметр CABAC формата : YesПараметр ReFrames формата : 5 framesИдентификатор кодека : V_MPEG4/ISO/AVCПродолжительность : 21mn 0sБитрейт : 2 602 KbpsШирина : 1 280 pixelsВысота : 720 pixelsСоотношение сторон : 16:9Режим частоты кадров : ConstantЧастота кадров : 23.976 fpsЦветовое пространство : YUVСубдискретизация насыщенности : 4:2:0Битовая глубина : 8 bitsТип развёртки : ProgressiveБит/(Пиксели*Кадры) : 0.118Размер потока : 391 MiB (85%)Библиотека кодирования : x264 core 133 r2334 a3ac64bНастройки программы : cabac=1 / ref=5 / deblock=1:0:0 / analyse=0x3:0x113 / me=umh / subme=8 / psy=1 / psy_rd=1.00:0.00 / mixed_ref=1 / me_range=16 / chroma_me=1 / trellis=1 / 8x8dct=1 / cqm=0 / deadzone=21,11 / fast_pskip=1 / chroma_qp_offset=-2 / threads=18 / lookahead_threads=3 / sliced_threads=0 / nr=0 / decimate=1 / interlaced=0 / bluray_compat=0 / constrained_intra=0 / bframes=3 / b_pyramid=2 / b_adapt=2 / b_bias=0 / direct=3 / weightb=1 / open_gop=0 / weightp=2 / keyint=250 / keyint_min=23 / scenecut=40 / intra_refresh=0 / rc_lookahead=50 / rc=crf / mbtree=1 / crf=18.0 / qcomp=0.60 / qpmin=0 / qpmax=69 / qpstep=4 / ip_ratio=1.40 / aq=1:1.00Язык : EnglishDefault : YesForced : NoMatrix coefficients : BT.709
AudioИдентификатор : 2Формат : AC-3Формат/Информация : Audio Coding 3Расширение режима : CM (complete main)Параметр Endianness формата : BigИдентификатор кодека : A_AC3Продолжительность : 21mn 0sВид битрейта : ConstantБитрейт : 384 KbpsКаналы : 6 channelsРасположение каналов : Front: L C R, Side: L R, LFEЧастота : 48.0 KHzБитовая глубина : 16 bitsМетод сжатия : LossyРазмер потока : 57.7 MiB (13%)Default : YesForced : No

Скриншоты

Вне форума [Профиль] [ЛС]
Показать сообщения:    
Ответить на тему

Текущее время: Сегодня 06:52

Часовой пояс: GMT + 3



Вы не можете начинать темы
Вы не можете отвечать на сообщения
Вы не можете редактировать свои сообщения
Вы не можете удалять свои сообщения
Вы не можете голосовать в опросах
Вы не можете прикреплять файлы к сообщениям
Вы не можете скачивать файлы