Сегодня идет свободное скачивание без начисления Download

Грейсленд / Graceland (2013) WEB-DL 1080p (Сезон 1/ Серии 1-2 из 10) NewStudio (Обновляемая)

Ответить на тему
 
Автор
Сообщение

UndegraundMen ®

Стаж: 5 лет 10 месяцев

Сообщений: 25860

Торрент-статистика

Пост 20-Июн-2013 03:33

[Цитировать]

Грейсленд / Graceland (2013) WEB-DL 1080p (Сезон 1/ Серии 1-2 из 10) NewStudio (Обновляемая)- Русское название: Грейсленд
Оригинальное название: Graceland
Год выпуска: 2013
Страна: США
Жанр: боевик, драма, криминал
Перевод: Многоголосый закадровый, профессиональный - NewStudio
Автор перевода: Александра Цернант
Озвучка: Александр Дасевич, Константин Погодаев, Владимир Курдов, Анна Тух
Постер: Vortex


Дата мировой премьеры: 6 июня 2013
Режиссер: Ренни Харлин
Актеры: Дэниел Сунджата, Ванесса Ферлито, Брэндон Джей МакЛарен, Стивен Л. Коэн, Том Стэдхем, Аарон Твейт, Мэнни Монтана и др.
Описание:
Сотрудников наркоконтроля, ФБР и таможенной службы собирают в одном доме, который получил название «Грейсленд», для работы под прикрытием. Молодой агент Майк Уоррен (Аарон Твейт), поступает под руководство более опытного коллеги агента Пола Бриггса (Дэниел Сунджата), который готов приплатить Майку, лишь бы тот сбежал.
Продолжительность: 1 серия: 01:02:46, 2-10 серии: ~00:43:00
Качество видео: WEB-DL 1080p
Видеокодек: AVC
Битрейт видео: ~5465
Размер кадра: 1920x1080 (16:9)
Аудио #1: Русский (AC3, 384 kb/s, 6 ch) — многоголосый закадровый
Аудио #2: Английский (AC3, 384 kb/s, 6 ch) — оригинал Сэмпл]

MediaInfo

Общее
Полное имя : D:\Downloads\Грейсленд (Сезон 1) Graceland (2013) WEBDL 1800p - NewStudio\Graceland.s01e01.WEBDL.1080p.NewStudio.TV.mkv
Формат : Matroska
Версия формата : Version 2
Размер файла : 2,78 Гбайт
Продолжительность : 1 ч. 2 м.
Общий поток : 6360 Кбит/сек
Дата кодирования : UTC 2013-06-19 11:49:18
Программа кодирования : mkvmerge v2.9.9 ('Tutu') built on Nov 25 2009 21:13:32
Библиотека кодирования : libebml v0.7.9 + libmatroska v0.8.1
Видео
Идентификатор : 1
Формат : AVC
Формат/Информация : Advanced Video Codec
Профиль формата : [url=mailto:High@L4.0]High@L4.0[/url]
Параметр CABAC формата : Да
Параметр ReFrames формата : 4 кадра
Идентификатор кодека : V_MPEG4/ISO/AVC
Продолжительность : 1 ч. 2 м.
Битрейт : 5465 Кбит/сек
Ширина : 1920 пикселей
Высота : 1080 пикселей
Соотношение сторон : 16:9
Режим частоты кадров : Постоянный
Частота кадров : 23,976 кадра/сек
Цветовое пространство : YUV
Субдискретизация насыщенности : 4:2:0
Битовая глубина : 8 бит
Тип развёртки : Прогрессивная
Бит/(Пиксели*Кадры) : 0.110
Размер потока : 2,39 Гбайт (86%)
Язык : English
Default : Нет
Forced : Нет
Основные цвета : BT.709
Характеристики трансфера : BT.709
Коэффициенты матрицы : BT.709
Аудио #1
Идентификатор : 2
Формат : AC-3
Формат/Информация : Audio Coding 3
Расширение режима : CM (complete main)
Параметр Endianness формата : Big
Идентификатор кодека : A_AC3
Продолжительность : 1 ч. 2 м.
Вид битрейта : Постоянный
Битрейт : 384 Кбит/сек
Каналы : 6 каналов
Расположение каналов : Front: L C R, Side: L R, LFE
Частота : 48,0 КГц
Битовая глубина : 16 бит
Метод сжатия : С потерями
Размер потока : 172 Мбайт (6%)
Язык : Russian
Default : Да
Forced : Да
Аудио #2
Идентификатор : 3
Формат : AC-3
Формат/Информация : Audio Coding 3
Расширение режима : CM (complete main)
Параметр Endianness формата : Big
Идентификатор кодека : A_AC3
Продолжительность : 1 ч. 2 м.
Вид битрейта : Постоянный
Битрейт : 384 Кбит/сек
Каналы : 6 каналов
Расположение каналов : Front: L C R, Side: L R, LFE
Частота : 48,0 КГц
Битовая глубина : 16 бит
Метод сжатия : С потерями
Размер потока : 172 Мбайт (6%)
Язык : English
Default : Нет
Forced : Нет

Список серий

01. Pilot / Пилот
02. Guadalajara Dog / Гуадалахарский хотдог

Раздача ведётся путём добавления новых серий

Раздача ведётся путём добавления новых серий; при каждом добавлении создаётся новый торрент. Чтобы начать докачку новой серии, пользователям необходимо сделать следующее:
(1) остановить скачивание,
(2) удалить старый торрент у себя из клиента (старые серии удалять не надо),
(3) скачать новый торрент и запустить его у себя в клиенте вместо старого, при этом указать клиенту путь в старую папку куда и должно происходить скачивание новых серий.
Ваш клиент при этом должен произвести хеширование (проверку) старой папки (если не производит сам - помогите ему сделать это), и будет докачивать только те серии которых у вас ещё нет. Старые серии при этом не удаляются, а продолжают раздаваться!
Eсли вы уже удалили старые серии, то предотвратить повторную закачку старых серий можно, отжав галочку в соответствующих местах при запуске нового торрента. По возможности, желательно не удалять старые серии как можно дольше чтобы релизёр не столько продолжал раздавать старые серии, а смог сконцентрироваться на новых.
Скриншоты:
       
Время раздачи: 24/7 - круглосуточно (по возможности)
Вне форума [Профиль] [ЛС]
Показать сообщения:    
Ответить на тему

Текущее время: Сегодня 17:44

Часовой пояс: GMT + 3



Вы не можете начинать темы
Вы не можете отвечать на сообщения
Вы не можете редактировать свои сообщения
Вы не можете удалять свои сообщения
Вы не можете голосовать в опросах
Вы не можете прикреплять файлы к сообщениям
Вы не можете скачивать файлы