Сегодня идет свободное скачивание без начисления Download

Мой Маленький Пони: Дружба Это Чудо / My Little Pony: Friendship Is Magic (Джэйсон Тиссен, Джеймс Вуттон) [2012.,Комедия, Семейный, Фэнтези]WEB-DLRip [H.264/1080p-HQ] (сезон 3, серии 1-13 из 13)

Ответить на тему
 
Автор
Сообщение

sashau ®

Пол:

Стаж: 5 лет 11 месяцев

Сообщений: 3568

Торрент-статистика

Пост 18-Июн-2013 17:35

[Цитировать]

Мой Маленький Пони: Дружба Это Чудо / My Little Pony: Friendship Is Magic - Русское название: Мой Маленький Пони: Дружба Это Чудо
Оригинальное название: My Little Pony: Friendship Is Magic
Год выпуска: 2012
Жанр: Комедия, Семейный, Фэнтези
Перевод: Одноголосый закадровый
Озвучка / Автор перевода: ShezzyPaw серии 1-13, Cryshl - серии 1-3,5
Вид субтитров: Отсутствуют

Дата мировой премьеры: 10 ноября 2012 — 16 февраля 2013
Создатель сериала: Лорен Фауст
Режиссер: Джэйсон Тиссен, Джеймс Вуттон
Персонажи: Сумеречная Искорка (Твайлайт Спаркл), Флатершай, Эплджек, Рарити, Радуга (Рейнбоу Дэш), Пинки Пай
Описание:
3 сезон мультсериала "Мой Маленький Пони: Дружба Это Чудо".
Приключения Твайлайт Спаркл, Рейнбоу Дэш, Рарити, Эплджек, Флатершай и Пинки Пай в волшебной стране Эквестрии продолжаются...
Продолжительность: 13 серий по ~00:22:00
Качество видео: WEB-DLRip
Видеокодек: MPEG-4 AVC/H.264
Битрейт видео: 4947 kbps
Размер кадра: 1920x1080
Аудио #1: AC-3, 6 channels, 384 Kbps, одноголосый закадровый ShezzyPaw
Аудио #2: AC-3, 6 channels, 384 Kbps, оригинальная звуковая дорожка (англ.)
Аудио #3: MP3, 2 channels, 128 Kbps, многоголосый закадровый Cryshl (серии 1-3,5)

Список серий:

1. The Crystal Empire, part 1 / Кристальная империя, часть 1
2. The Crystal Empire, part 2 / Кристальная империя, часть 2
3. Too Many Pinkie Pies / Слишком много Пинки Пай
4. One Bad Apple / Гнилое яблочко
5. Magic Duel / Магическая дуэль
6. Sleepless in Ponyville / Неспящие в Понивилле
7. Wonderbolt Academy / Академия Чудомолний
8. Apple Family Reunion / Сбор семьи Эпплов
9. Spike at Your Service / Спайк к Вашим услугам
10. Keep Calm and Flutter On / Сохраняй спокойствие!
11. Just For Sidekicks / Ради друзей
12. Games Ponies Play / Игры пони
13. Magical Mystery Cure / Волшебное исцеление

МедиаИнфо:

Общее
Уникальный идентификатор : 252726736472556388405028522861715919635 (0xBE216621B778CB448B18077AE8421313)
Формат : Matroska
Версия формата : Version 4 / Version 2
Размер файла : 940 Мбайт
Продолжительность : 22 м.
Общий поток : 5962 Кбит/сек
Дата кодирования : UTC 2010-02-22 21:41:31
Программа кодирования : mkvmerge v5.9.0 ('On The Loose') built on Dec 9 2012 15:37:01
Библиотека кодирования : libebml v1.3.0 + libmatroska v1.4.0
Видео
Идентификатор : 1
Формат : AVC
Формат/Информация : Advanced Video Codec
Профиль формата : [url=mailto:High@L4.0]High@L4.0[/url]
Параметр CABAC формата : Да
Параметр ReFrames формата : 4 кадра
Режим смешивания : Header stripping
Идентификатор кодека : V_MPEG4/ISO/AVC
Продолжительность : 22 м.
Битрейт : 4947 Кбит/сек
Ширина : 1920 пикселей
Высота : 1080 пикселей
Соотношение сторон : 16:9
Режим частоты кадров : Постоянный
Частота кадров : 23,976 кадра/сек
Цветовое пространство : YUV
Субдискретизация насыщенности : 4:2:0
Битовая глубина : 8 бит
Тип развёртки : Прогрессивная
Бит/(Пиксели*Кадры) : 0.100
Размер потока : 780 Мбайт (83%)
Заголовок : S03E01 : The Crystal Empire (1) 1080p
Язык : English
Default : Нет
Forced : Нет
Основные цвета : BT.709
Характеристики трансфера : BT.709
Коэффициенты матрицы : BT.709
Аудио #1
Идентификатор : 2
Формат : AC-3
Формат/Информация : Audio Coding 3
Расширение режима : CM (complete main)
Параметр Endianness формата : Big
Режим смешивания : Header stripping
Идентификатор кодека : A_AC3
Продолжительность : 22 м.
Вид битрейта : Постоянный
Битрейт : 384 Кбит/сек
Каналы : 6 каналов
Расположение каналов : Front: L C R, Side: L R, LFE
Частота : 48,0 КГц
Битовая глубина : 16 бит
Метод сжатия : С потерями
Размер потока : 60,6 Мбайт (6%)
Заголовок : [RUS] AC3 5.1 - ShezzyPaw
Язык : Russian
Default : Да
Forced : Нет
Аудио #2
Идентификатор : 3
Формат : AC-3
Формат/Информация : Audio Coding 3
Расширение режима : CM (complete main)
Параметр Endianness формата : Big
Режим смешивания : Header stripping
Идентификатор кодека : A_AC3
Продолжительность : 22 м.
Вид битрейта : Постоянный
Битрейт : 384 Кбит/сек
Каналы : 6 каналов
Расположение каналов : Front: L C R, Side: L R, LFE
Частота : 48,0 КГц
Битовая глубина : 16 бит
Метод сжатия : С потерями
Размер потока : 60,6 Мбайт (6%)
Заголовок : [ENG] AC3 5.1
Язык : English
Default : Нет
Forced : Нет
Аудио #3
Идентификатор : 4
Формат : MPEG Audio
Версия формата : Version 1
Профиль формата : Layer 3
Режим : Joint stereo
Расширение режима : MS Stereo
Режим смешивания : Header stripping
Идентификатор кодека : A_MPEG/L3
Идентификатор кодека/Подсказка : MP3
Продолжительность : 22 м.
Вид битрейта : Постоянный
Битрейт : 128 Кбит/сек
Каналы : 2 канала
Частота : 48,0 КГц
Метод сжатия : С потерями
Размер потока : 20,2 Мбайт (2%)
Заголовок : [RUS] AC3 5.1 - Cryshl
Библиотека кодирования : LAME3.97 (beta)
Язык : Russian
Default : Нет
Forced : Нет
Скриншоты:
         
         
Вне форума [Профиль] [ЛС]
Показать сообщения:    
Ответить на тему

Текущее время: Сегодня 23:16

Часовой пояс: GMT + 3



Вы не можете начинать темы
Вы не можете отвечать на сообщения
Вы не можете редактировать свои сообщения
Вы не можете удалять свои сообщения
Вы не можете голосовать в опросах
Вы не можете прикреплять файлы к сообщениям
Вы не можете скачивать файлы