Сегодня идет свободное скачивание без начисления Download

Бесконтрольные / Unsupervised / Сезон: 1 / Серии: 1-10 из 13 (Тодд Реднер / Todd Redner) [2012, США, мультфильм, комедия, WEB-DLRip] AVO (Гоблин) + Original (Eng)

Ответить на тему
 
Автор
Сообщение

Koralina ®

Стаж: 6 лет

Сообщений: 1191

Откуда: Lithuania

Торрент-статистика

Пост 17-Июн-2013 11:52

[Цитировать]

Бесконтрольные / Unsupervised Выпущено: США
Жанр: мультфильм, комедия
Год выпуска: 2012
Продолжительность: серия ~00:21:00-Перевод: Авторский (одноголосый) [Гоблин] по заказу канала 2x2
Cубтитры: нет-Режиссер: Тодд Реднер
В ролях: Джастин Лонг, Дэвид Хорнсби, Кристен Белл, Романи Малко, Роб Россель, Сэлли Келлермен, Кэйтлин Олсон, Мария Бэмфорд, Фред Армизен, Скотт Мардер-О фильме: Мультсериал рассказывает о двух лучших друзьях Гарри и Джоэле, растущих без присмотра родителей.- -Монтаж и работа со звуком: zhbanochek, vadimdexter-Формат: AVI (XviD)
Качество: WEB-DLRip [vadimdexter]
Видео: ~1400 kb/s, 720x400, 23.976 fps, 16:9
Аудио #2: MP3, 128 kb/s, 2 ch, 48 КГц, 16 бит [Автор. одноголосый, Гоблин]
Аудио #3: MP3, 128 kb/s, 2 ch, 48 КГц, 16 бит [Оригинал]-

Список серий

1. Pilot / Пилот
2. Rich Girl / Богатая девочка
3. Field of Dreams... and Dogs / Поле Чудес... и собаки
4. Fires & Liars / Огни & Лжецы
5. Stupid Idiots / Тупые идиоты
6. Nits / Вши
7. The Magic of Science / Волшебство Науки
8. My Brother Brian / Мой Брат Брайан
9. Jesse Judge Lawncare Incorporated / Джесси Джадж Уход за газоном Инкорпорейтед
10. Youngbloods / Молодая Кровь
11. The Great Travelers Road / Дорога великих путешественников
12. Black Squirrels / Черные белки
13. Reggie Dog Bites / Реджи пес кусака

Скриншоты

MediaInfo

Код:
Формат                                   : AVI
Формат/Информация                        : Audio Video Interleave
Размер файла                             : 251 Мбайт
Продолжительность                        : 21 м.
Общий поток                              : 1632 Кбит/сек
Программа кодирования                    : VirtualDubMod 1.5.10.2 (build 2542/release)
Библиотека кодирования                   : VirtualDubMod build 2542/release
Видео
Идентификатор                            : 0
Формат                                   : MPEG-4 Visual
Профиль формата                          : Advanced Simple@L5
Параметр BVOP формата                    : 1
Параметр QPel формата                    : Нет
Параметр GMC формата                     : Без точки перехода
Параметр матрицы формата                 : Default (MPEG)
Идентификатор кодека                     : XVID
Идентификатор кодека/Подсказка           : XviD
Продолжительность                        : 21 м.
Битрейт                                  : 1362 Кбит/сек
Ширина                                   : 720 пикселей
Высота                                   : 400 пикселей
Соотношение сторон                       : 16:9
Частота кадров                           : 23,976 кадра/сек
Цветовое пространство                    : YUV
Субдискретизация насыщенности            : 4:2:0
Битовая глубина                          : 8 бит
Тип развёртки                            : Прогрессивная
Метод сжатия                             : С потерями
Бит/(Пиксели*Кадры)                      : 0.197
Размер потока                            : 209 Мбайт (83%)
Библиотека кодирования                   : XviD 64
Аудио #1
Идентификатор                            : 1
Формат                                   : MPEG Audio
Версия формата                           : Version 1
Профиль формата                          : Layer 3
Режим                                    : Joint stereo
Расширение режима                        : MS Stereo
Идентификатор кодека                     : 55
Идентификатор кодека/Подсказка           : MP3
Продолжительность                        : 21 м.
Вид битрейта                             : Постоянный
Битрейт                                  : 128 Кбит/сек
Каналы                                   : 2 канала
Частота                                  : 48,0 КГц
Метод сжатия                             : С потерями
Размер потока                            : 19,7 Мбайт (8%)
Выравнивание                             : Соединение по промежуткам
Продолжительность промежутка             : 42  мс. (1,00 видеокадр)
Время предзагрузки промежутка            : 504  мс.
Аудио #2
Идентификатор                            : 2
Формат                                   : MPEG Audio
Версия формата                           : Version 1
Профиль формата                          : Layer 3
Режим                                    : Joint stereo
Расширение режима                        : MS Stereo
Идентификатор кодека                     : 55
Идентификатор кодека/Подсказка           : MP3
Продолжительность                        : 21 м.
Вид битрейта                             : Постоянный
Битрейт                                  : 128 Кбит/сек
Каналы                                   : 2 канала
Частота                                  : 48,0 КГц
Метод сжатия                             : С потерями
Размер потока                            : 19,7 Мбайт (8%)
Выравнивание                             : Соединение по промежуткам
Продолжительность промежутка             : 42  мс. (1,00 видеокадр)
Время предзагрузки промежутка            : 504  мс.

_________________
Вне форума [Профиль] [ЛС]
Похожие темы
Форум Тема Автор Торрент Отв. Посл. сообщение
./templates/default/images/folder_dl.gif Обучающее видео Семинар 2 от 15.05.12 Строим бесконфликтные отношения в коллективе. Тандемный принцип [2012, методология управления и корпоративная культура, DVDRip, RUS] (Видеоурок) Omen
1 | 0

0 | 935

4

2012-12-15 00:56
Omen Последнее
Показать сообщения:    
Ответить на тему

Текущее время: Сегодня 21:21

Часовой пояс: GMT + 3



Вы не можете начинать темы
Вы не можете отвечать на сообщения
Вы не можете редактировать свои сообщения
Вы не можете удалять свои сообщения
Вы не можете голосовать в опросах
Вы не можете прикреплять файлы к сообщениям
Вы не можете скачивать файлы