Today is a free download without charge Download

Larry Young - The Complete Blue Note Recordings Of Larry Young (1964-69) 6CD BoxSet /1991, Mosaic Remaster/[FLAC|Lossless]

Reply to topic
 
Author
Message

UndegraundMen ®

Longevity: 6 years 9 months

Posts: 25145

Торрент-статистика

Post 16-Jun-2013 03:01

[Quote]

Larry Young - The Complete Blue Note Recordings Of Larry Young (1964-69) 6CD BoxSet /1991, Mosaic Remaster/- Label: Mosaic Records / Blue Note
Catalog: № 57501
Год: 1991
Жанр: Jazz / Soul Jazz / Hard Bop / Hammond B-3
Продолжительность: 06:04:04
Кодек: FLAC (tracks+.cue)
Битрейт: Lossless

Personnel

Larry Young (organ)
Elvin Jones (drums)
Grant Green (guitar)
Sam Rivers (tenor sax)
Bobby Hutcherson (vibes)
Hank Mobley (tenor sax)
Lee Morgan (trumpet)
Woody Shaw (trumpet)
Joe Henderson (tenor sax)
George Benson (guitar)
Eddie Gale (trumpet)
James Spaulding (alto sax & flute)
Herbert Morgan (tenor sax)
Wilson Moorman III (drums)
Jerry Thomas (drums)
Hank White (flugelhorn)
Tyrone Washington (tenor sax)
Eddie Wright (guitar)
Edward Gladden (drums)
Stacey Edwards (conga)
Althea Young (vocal)
Byard Lancaster (alto sax & flute)

CD1

Продолжительность: 01:07:12
Трек лист:
01. Talkin' About J.C. (11:42)
02. People (7:28)
03. Luny Tune (7:43)
04. You Don't Know What Love Is (7:38)
05. I'm An Old Cowhand (6:30)
06. Tyrone (9:40)
07. Plaza De Toros (9:39)
08. Ritha (quartet version) (6:52)

Отчёт ЕАС:

Код:
EAC extraction logfile from 10. March 2006, 7:28 for CD
Larry Young / Complete BN Recordings
Used drive  : PLEXTOR CD-R   PX-W4824A   Adapter: 1  ID: 0
Read mode   : Secure with C2, accurate stream, disable cache
Read offset correction : 98
Overread into Lead-In and Lead-Out : Yes
Used output format : C:\Program Files\Exact Audio Copy\flac.exe   (User Defined Encoder)
                     320 kBit/s
                     Additional command line options : -8 -V -T "artist=%a" -T "title=%t" -T "album=%g" -T "date=%y" -T "tracknumber=%n" -T "genre=%m" %s
Other options      :
    Fill up missing offset samples with silence : Yes
    Delete leading and trailing silent blocks : No
    Native Win32 interface for Win NT & 2000
Track  1
     Filename E:\05_NEW RIPS\Complete BN Recordings (Larry Young)\disc 1\101 - Talkin' About J.C. (Larry Young - Complete BN Recordings).wav
     Pre-gap length  0:00:02.42
     Peak level 82.0 %
     Track quality 100.0 %
     Test CRC D6F79AB2
     Copy CRC D6F79AB2
     Copy OK
Track  2
     Filename E:\05_NEW RIPS\Complete BN Recordings (Larry Young)\disc 1\102 - People (Larry Young - Complete BN Recordings).wav
     Pre-gap length  0:00:02.00
     Peak level 72.5 %
     Track quality 100.0 %
     Test CRC 12FC7117
     Copy CRC 12FC7117
     Copy OK
Track  3
     Filename E:\05_NEW RIPS\Complete BN Recordings (Larry Young)\disc 1\103 - Luny Tune (Larry Young - Complete BN Recordings).wav
     Pre-gap length  0:00:02.22
     Peak level 77.7 %
     Track quality 100.0 %
     Test CRC 42B98279
     Copy CRC 42B98279
     Copy OK
Track  4
     Filename E:\05_NEW RIPS\Complete BN Recordings (Larry Young)\disc 1\104 - You Don't Know What Love Is (Larry Young - Complete BN Recordings).wav
     Pre-gap length  0:00:02.00
     Peak level 62.1 %
     Track quality 100.0 %
     Test CRC 05D38D1C
     Copy CRC 05D38D1C
     Copy OK
Track  5
     Filename E:\05_NEW RIPS\Complete BN Recordings (Larry Young)\disc 1\105 - I'm An Old Cowhand (Larry Young - Complete BN Recordings).wav
     Pre-gap length  0:00:02.00
     Peak level 67.8 %
     Track quality 100.0 %
     Test CRC FC12A36B
     Copy CRC FC12A36B
     Copy OK
Track  6
     Filename E:\05_NEW RIPS\Complete BN Recordings (Larry Young)\disc 1\106 - Tyrone (Larry Young - Complete BN Recordings).wav
     Pre-gap length  0:00:01.76
     Peak level 86.8 %
     Track quality 100.0 %
     Test CRC AF328FBC
     Copy CRC AF328FBC
     Copy OK
Track  7
     Filename E:\05_NEW RIPS\Complete BN Recordings (Larry Young)\disc 1\107 - Plaza De Toros (Larry Young - Complete BN Recordings).wav
     Pre-gap length  0:00:02.22
     Peak level 89.0 %
     Track quality 100.0 %
     Test CRC 4F205AE5
     Copy CRC 4F205AE5
     Copy OK
Track  8
     Filename E:\05_NEW RIPS\Complete BN Recordings (Larry Young)\disc 1\108 - Ritha (quartet version) (Larry Young - Complete BN Recordings).wav
     Pre-gap length  0:00:01.96
     Peak level 83.8 %
     Track quality 100.0 %
     Test CRC 18943989
     Copy CRC 18943989
     Copy OK
No errors occured
End of status report

Отчёт auCDtect Task manager:

Код:
PERFORMER: auCDtect Task Manager, ver. 1.6.0 RC1 build 1.6.0.1
Copyright (c) 2008-2010 y-soft. All rights reserved
http://y-soft.org
ANALYZER: auCDtect: CD records authenticity detector, version 0.8.2
Copyright (c) 2004 Oleg Berngardt. All rights reserved.
Copyright (c) 2004 Alexander Djourik. All rights reserved.
FILE: 108 - Ritha (quartet version).flac
  Size: 43092960 Hash: 96A147D48F87B895B8A4DD58AE282432 Accuracy: -m0
  Conclusion: CDDA 99%
  Signature: 3CB8D0D893592C69532FAC9E3081FADC166BDD5F
FILE: 107 - Plaza De Toros.flac
  Size: 63194651 Hash: 497806CF56E3AFF67BFD5FA371ED0F5A Accuracy: -m0
  Conclusion: CDDA 100%
  Signature: 439B706840E304A9A642E7D7A982C941FADF7DA3
FILE: 106 - Tyrone.flac
  Size: 61062530 Hash: 91E1FCFD2A7D5DF1147B0FCAC47B66CB Accuracy: -m0
  Conclusion: CDDA 100%
  Signature: 45B998967A6E1853C18A6D29A35981C98E1147FC
FILE: 105 - I'm An Old Cowhand.flac
  Size: 36704208 Hash: DF01DFD8991F04F39FB5A28EA778FAA8 Accuracy: -m0
  Conclusion: CDDA 100%
  Signature: 892E69574B0B09546EB0B60BAF7615A1BBED02B1
FILE: 104 - You Don't Know What Love Is.flac
  Size: 34351784 Hash: 787C696F75BD4E0D834978FD2DABF281 Accuracy: -m0
  Conclusion: CDDA 86%
  Signature: 2D6BDA197E59A8E495A752AC6B06CEAB38121BFC
FILE: 103 - Luny Tune.flac
  Size: 43711982 Hash: 5520792B5115F62BDAF94D708F744E9F Accuracy: -m0
  Conclusion: CDDA 100%
  Signature: 8BAC1AA97BED551C8EC96237B21EB42491480929
FILE: 102 - People.flac
  Size: 34960958 Hash: CF63B26A5C89767944D869C8F613EBC3 Accuracy: -m0
  Conclusion: CDDA 92%
  Signature: BD65D7D67EF846ADA14CBC5DA0AF5BD796169ADB
FILE: 101 - Talkin' About J.C..flac
  Size: 73925649 Hash: 865D61EE77C40CBA571E2E1376C93FFB Accuracy: -m0
  Conclusion: CDDA 100%
  Signature: 3BB812DD1FB490B7856AA46ABF97575D8BC0074E

Спектрограмма

 

CD2

Продолжительность: 00:55:45
Трек лист:
01. Paris Eyes (6:42)
02. Backup (8:40)
03. Ritha (6:47)
04. I Wish You Love (8:45)
05. Lazy Afternoon (7:45)
06. Street Of Dreams (9:04)
07. Somewhere In The Night (8:02)

Отчёт auCDtect Task manager:

Код:
PERFORMER: auCDtect Task Manager, ver. 1.6.0 RC1 build 1.6.0.1
Copyright (c) 2008-2010 y-soft. All rights reserved
http://y-soft.org
ANALYZER: auCDtect: CD records authenticity detector, version 0.8.2
Copyright (c) 2004 Oleg Berngardt. All rights reserved.
Copyright (c) 2004 Alexander Djourik. All rights reserved.
FILE: 207 - Somewhere In The Night.flac
  Size: 44755253 Hash: 8BA247D6C5B3D2166E4B00519CBC08FB Accuracy: -m0
  Conclusion: CDDA 100%
  Signature: A55994D9C59EC84029436826982F4B5FF420120C
FILE: 206 - Street Of Dreams.flac
  Size: 51581949 Hash: 1BE892BE3A0345C66819A71D61B14456 Accuracy: -m0
  Conclusion: CDDA 100%
  Signature: 619F8F98F04004DF8C8A4693D66F6FDDA6A1FECE
FILE: 205 - Lazy Afternoon.flac
  Size: 39916221 Hash: 6BB42BDF6D3D08A9FEB1A58D55C7D42E Accuracy: -m0
  Conclusion: CDDA 100%
  Signature: 05B023F3EAC458D70FF0E0DB41B53A8F5A822C23
FILE: 204 - I Wish You Love.flac
  Size: 51461094 Hash: F47BF48AFD02E8AE3A44D0595C33C20E Accuracy: -m0
  Conclusion: CDDA 100%
  Signature: 968B9A7BD62503B3D0A820B3CF9C5C995AFF0CD4
FILE: 203 - Ritha.flac
  Size: 41463277 Hash: 7032BDFE8104CA6815EDBFEA3730A061 Accuracy: -m0
  Conclusion: CDDA 99%
  Signature: 99AB162252E64293F3FFE520F8A8DCA564341333
FILE: 202 - Backup.flac
  Size: 54219606 Hash: 2EBFE78192AB9268C9B835AE92B20255 Accuracy: -m0
  Conclusion: CDDA 100%
  Signature: 1C69990DBD1E5134A737259EFA677B25113FC987
FILE: 201 - Paris Eyes.flac
  Size: 42515045 Hash: 83D0457793A4247A152EEBE828F4D498 Accuracy: -m0
  Conclusion: CDDA 100%
  Signature: 2A4DCD4B61F281E4FA5BF214E5DF63E67D92C345

Спектрограмма

 

CD3

Продолжительность: 01:01:34
Трек лист:
01. I Want To Hold Your Hand (7:20)
02. Speak Low (7:12)
03. Stella By Starlight (6:29)
04. Corcovado (5:57)
05. This Could Be The Start Of Something Big (7:08)
06. At Long Last Love (7:19)
07. Zoltan (7:39)
08. Monk's Dream (5:48)
09. If (6:42)

Отчёт ЕАС:

Код:
EAC extraction logfile from 10. March 2006, 16:52 for CD
Larry Young / Complete BN Recordings
Used drive  : PLEXTOR CD-R   PX-W4824A   Adapter: 1  ID: 0
Read mode   : Secure with C2, accurate stream, disable cache
Read offset correction : 98
Overread into Lead-In and Lead-Out : Yes
Used output format : C:\Program Files\Exact Audio Copy\flac.exe   (User Defined Encoder)
                     320 kBit/s
                     Additional command line options : -8 -V -T "artist=%a" -T "title=%t" -T "album=%g" -T "date=%y" -T "tracknumber=%n" -T "genre=%m" %s
Other options      :
    Fill up missing offset samples with silence : Yes
    Delete leading and trailing silent blocks : No
    Native Win32 interface for Win NT & 2000
Track  1
     Filename E:\05_NEW RIPS\Complete BN Recordings (Larry Young)\disc 2\201 - Paris Eyes (Larry Young - Complete BN Recordings).wav
     Pre-gap length  0:00:02.42
     Peak level 82.2 %
     Track quality 100.0 %
     Test CRC 9D7E4143
     Copy CRC 9D7E4143
     Copy OK
Track  2
     Filename E:\05_NEW RIPS\Complete BN Recordings (Larry Young)\disc 2\202 - Backup (Larry Young - Complete BN Recordings).wav
     Pre-gap length  0:00:01.97
     Peak level 94.5 %
     Track quality 100.0 %
     Test CRC 34B4491B
     Copy CRC 34B4491B
     Copy OK
Track  3
     Filename E:\05_NEW RIPS\Complete BN Recordings (Larry Young)\disc 2\203 - Ritha (Larry Young - Complete BN Recordings).wav
     Pre-gap length  0:00:02.00
     Peak level 100.0 %
     Track quality 100.0 %
     Test CRC B398FEB0
     Copy CRC B398FEB0
     Copy OK
Track  4
     Filename E:\05_NEW RIPS\Complete BN Recordings (Larry Young)\disc 2\204 - I Wish You Love (Larry Young - Complete BN Recordings).wav
     Pre-gap length  0:00:01.40
     Peak level 91.8 %
     Track quality 100.0 %
     Test CRC 9030CF2C
     Copy CRC 9030CF2C
     Copy OK
Track  5
     Filename E:\05_NEW RIPS\Complete BN Recordings (Larry Young)\disc 2\205 - Lazy Afternoon (Larry Young - Complete BN Recordings).wav
     Pre-gap length  0:00:02.04
     Peak level 74.2 %
     Track quality 100.0 %
     Test CRC 89BE2463
     Copy CRC 89BE2463
     Copy OK
Track  6
     Filename E:\05_NEW RIPS\Complete BN Recordings (Larry Young)\disc 2\206 - Street Of Dreams (Larry Young - Complete BN Recordings).wav
     Pre-gap length  0:00:01.64
     Peak level 99.7 %
     Track quality 100.0 %
     Test CRC E1C23256
     Copy CRC E1C23256
     Copy OK
Track  7
     Filename E:\05_NEW RIPS\Complete BN Recordings (Larry Young)\disc 2\207 - Somewhere In The Night (Larry Young - Complete BN Recordings).wav
     Pre-gap length  0:00:01.86
     Peak level 87.5 %
     Track quality 100.0 %
     Test CRC 7B1C08BA
     Copy CRC 7B1C08BA
     Copy OK
No errors occured
End of status report
------------------------------------------------------------
EAC extraction logfile from 10. March 2006, 17:45 for CD
Larry Young / Complete BN Recordings
Used drive  : PLEXTOR CD-R   PX-W4824A   Adapter: 1  ID: 0
Read mode   : Secure with C2, accurate stream, disable cache
Read offset correction : 98
Overread into Lead-In and Lead-Out : Yes
Used output format : C:\Program Files\Exact Audio Copy\flac.exe   (User Defined Encoder)
                     320 kBit/s
                     Additional command line options : -8 -V -T "artist=%a" -T "title=%t" -T "album=%g" -T "date=%y" -T "tracknumber=%n" -T "genre=%m" %s
Other options      :
    Fill up missing offset samples with silence : Yes
    Delete leading and trailing silent blocks : No
    Native Win32 interface for Win NT & 2000
Track  1
     Filename E:\05_NEW RIPS\Complete BN Recordings (Larry Young)\disc 3\301 - I Want To Hold Your Hand (Larry Young - Complete BN Recordings).wav
     Pre-gap length  0:00:02.42
     Peak level 90.4 %
     Track quality 100.0 %
     Test CRC 7D58DEF4
     Copy CRC 7D58DEF4
     Copy OK
Track  2
     Filename E:\05_NEW RIPS\Complete BN Recordings (Larry Young)\disc 3\302 - Speak Low (Larry Young - Complete BN Recordings).wav
     Pre-gap length  0:00:02.02
     Peak level 92.0 %
     Track quality 100.0 %
     Test CRC 02DD119D
     Copy CRC 02DD119D
     Copy OK
Track  3
     Filename E:\05_NEW RIPS\Complete BN Recordings (Larry Young)\disc 3\303 - Stella By Starlight (Larry Young - Complete BN Recordings).wav
     Pre-gap length  0:00:02.29
     Peak level 94.6 %
     Track quality 100.0 %
     Test CRC F365977B
     Copy CRC F365977B
     Copy OK
Track  4
     Filename E:\05_NEW RIPS\Complete BN Recordings (Larry Young)\disc 3\304 - Corcovado (Larry Young - Complete BN Recordings).wav
     Pre-gap length  0:00:02.00
     Peak level 90.5 %
     Track quality 100.0 %
     Test CRC 6505FD35
     Copy CRC 6505FD35
     Copy OK
Track  5
     Filename E:\05_NEW RIPS\Complete BN Recordings (Larry Young)\disc 3\305 - This Could Be The Start Of Something Big (Larry Young - Complete BN Recordings).wav
     Pre-gap length  0:00:01.73
     Peak level 92.8 %
     Track quality 100.0 %
     Test CRC 25C81565
     Copy CRC 25C81565
     Copy OK
Track  6
     Filename E:\05_NEW RIPS\Complete BN Recordings (Larry Young)\disc 3\306 - At Long Last Love (Larry Young - Complete BN Recordings).wav
     Pre-gap length  0:00:02.33
     Peak level 100.0 %
     Track quality 100.0 %
     Test CRC 18CB5F9C
     Copy CRC 18CB5F9C
     Copy OK
Track  7
     Filename E:\05_NEW RIPS\Complete BN Recordings (Larry Young)\disc 3\307 - Zoltan (Larry Young - Complete BN Recordings).wav
     Pre-gap length  0:00:01.73
     Peak level 83.8 %
     Track quality 99.9 %
     Test CRC 1D28C1EB
     Copy CRC 1D28C1EB
     Copy OK
Track  8
     Filename E:\05_NEW RIPS\Complete BN Recordings (Larry Young)\disc 3\308 - Monk's Dream (Larry Young - Complete BN Recordings).wav
     Pre-gap length  0:00:01.66
     Peak level 85.0 %
     Track quality 100.0 %
     Test CRC 123870A9
     Copy CRC 123870A9
     Copy OK
Track  9
     Filename E:\05_NEW RIPS\Complete BN Recordings (Larry Young)\disc 3\309 - If (Larry Young - Complete BN Recordings).wav
     Pre-gap length  0:00:01.90
     Peak level 86.3 %
     Track quality 100.0 %
     Test CRC E4FE4178
     Copy CRC E4FE4178
     Copy OK
No errors occured
End of status report

Отчёт auCDtect Task manager:

Код:
PERFORMER: auCDtect Task Manager, ver. 1.6.0 RC1 build 1.6.0.1
Copyright (c) 2008-2010 y-soft. All rights reserved
http://y-soft.org
ANALYZER: auCDtect: CD records authenticity detector, version 0.8.2
Copyright (c) 2004 Oleg Berngardt. All rights reserved.
Copyright (c) 2004 Alexander Djourik. All rights reserved.
FILE: 207 - Somewhere In The Night.flac
  Size: 44755253 Hash: 8BA247D6C5B3D2166E4B00519CBC08FB Accuracy: -m0
  Conclusion: CDDA 100%
  Signature: A55994D9C59EC84029436826982F4B5FF420120C
FILE: 206 - Street Of Dreams.flac
  Size: 51581949 Hash: 1BE892BE3A0345C66819A71D61B14456 Accuracy: -m0
  Conclusion: CDDA 100%
  Signature: 619F8F98F04004DF8C8A4693D66F6FDDA6A1FECE
FILE: 205 - Lazy Afternoon.flac
  Size: 39916221 Hash: 6BB42BDF6D3D08A9FEB1A58D55C7D42E Accuracy: -m0
  Conclusion: CDDA 100%
  Signature: 05B023F3EAC458D70FF0E0DB41B53A8F5A822C23
FILE: 204 - I Wish You Love.flac
  Size: 51461094 Hash: F47BF48AFD02E8AE3A44D0595C33C20E Accuracy: -m0
  Conclusion: CDDA 100%
  Signature: 968B9A7BD62503B3D0A820B3CF9C5C995AFF0CD4
FILE: 203 - Ritha.flac
  Size: 41463277 Hash: 7032BDFE8104CA6815EDBFEA3730A061 Accuracy: -m0
  Conclusion: CDDA 99%
  Signature: 99AB162252E64293F3FFE520F8A8DCA564341333
FILE: 202 - Backup.flac
  Size: 54219606 Hash: 2EBFE78192AB9268C9B835AE92B20255 Accuracy: -m0
  Conclusion: CDDA 100%
  Signature: 1C69990DBD1E5134A737259EFA677B25113FC987
FILE: 201 - Paris Eyes.flac
  Size: 42515045 Hash: 83D0457793A4247A152EEBE828F4D498 Accuracy: -m0
  Conclusion: CDDA 100%
  Signature: 2A4DCD4B61F281E4FA5BF214E5DF63E67D92C345
FILE: 309 - If.flac
  Size: 46351242 Hash: 775314DE19ED85ACB87C4166C657D979 Accuracy: -m0
  Conclusion: CDDA 100%
  Signature: 9D10B3EB070D3A80B1D0072F51BF4A021728577F
FILE: 308 - Monk's Dream.flac
  Size: 37371575 Hash: 7F9E893FBC4D7462834B5732AF6A38D2 Accuracy: -m0
  Conclusion: CDDA 100%
  Signature: 48F6C33C1966A4F5C4B0BAD42C05E595541AA82D
FILE: 307 - Zoltan.flac
  Size: 49631373 Hash: 6D9433B1D1FA509E6E7802130B2D9D34 Accuracy: -m0
  Conclusion: CDDA 100%
  Signature: A272D47FF67E7B35D6C0F39AC3C020BA76225D6B
FILE: 306 - At Long Last Love.flac
  Size: 38576561 Hash: 0D586B6CC209702237132DF3E7879EBF Accuracy: -m0
  Conclusion: CDDA 100%
  Signature: 4EAAB444DCD94E262F0927352580BC8909DFD1EA
FILE: 305 - This Could Be The Start Of Something Big.flac
  Size: 33665377 Hash: 3438BA839424A4145A31C96DC43B053E Accuracy: -m0
  Conclusion: CDDA 100%
  Signature: 432A1D06FA41AE5FC7095DF913336572CC3DCFC1
FILE: 304 - Corcovado.flac
  Size: 30474907 Hash: 9BF99214367975ADEEADE0DA99B00AB4 Accuracy: -m0
  Conclusion: CDDA 99%
  Signature: A5E78856F3F0BD038A900A1318BC6FADECD3D91E
FILE: 303 - Stella By Starlight.flac
  Size: 34132988 Hash: 9E0C97396B8DB52D7ED3903C61D331E1 Accuracy: -m0
  Conclusion: CDDA 100%
  Signature: AF6F3359E45CD6E9886F292AC27142FAE461BADD
FILE: 302 - Speak Low.flac
  Size: 43653277 Hash: B2CC9CB48FB792E492E6E8506E4891D2 Accuracy: -m0
  Conclusion: CDDA 100%
  Signature: BE6EED811437ECC76F55FD5D3C4BBF6FCC8923DD
FILE: 301 - I Want To Hold Your Hand.flac
  Size: 37442465 Hash: BA8765CB84925EDC2D8EDE912B96231D Accuracy: -m0
  Conclusion: CDDA 100%
  Signature: 434F67A9426F294148FEDD66C219257459AD543A

Спектрограмма

 

CD4

Продолжительность: 01:00:53
Трек лист:
01. The Moontrane (7:20)
02. Softly As In A Morning Sunrise (6:24)
03. Beyond All Limits (6:03)
04. Pavanne (14:10)
05. Of Love And Peace (6:33)
06. Seven Steps To Heaven (10:15)
07. Falaq (10:08)

Отчёт ЕАС:

Код:
EAC extraction logfile from 10. March 2006, 23:15 for CD
Larry Young / Complete BN Recordings
Used drive  : PLEXTOR CD-R   PX-W4824A   Adapter: 1  ID: 0
Read mode   : Secure with C2, accurate stream, disable cache
Read offset correction : 98
Overread into Lead-In and Lead-Out : Yes
Used output format : C:\Program Files\Exact Audio Copy\flac.exe   (User Defined Encoder)
                     320 kBit/s
                     Additional command line options : -8 -V -T "artist=%a" -T "title=%t" -T "album=%g" -T "date=%y" -T "tracknumber=%n" -T "genre=%m" %s
Other options      :
    Fill up missing offset samples with silence : Yes
    Delete leading and trailing silent blocks : No
    Native Win32 interface for Win NT & 2000
Track  1
     Filename E:\05_NEW RIPS\Complete BN Recordings (Larry Young)\disc 4\401 - The Moontrane (Larry Young - Complete BN Recordings).wav
     Pre-gap length  0:00:02.42
     Peak level 83.7 %
     Track quality 100.0 %
     Test CRC DCCF6925
     Copy CRC DCCF6925
     Copy OK
Track  2
     Filename E:\05_NEW RIPS\Complete BN Recordings (Larry Young)\disc 4\402 - Softly As In A Morning Sunrise (Larry Young - Complete BN Recordings).wav
     Pre-gap length  0:00:01.70
     Peak level 92.7 %
     Track quality 100.0 %
     Test CRC 971081BE
     Copy CRC 971081BE
     Copy OK
Track  3
     Filename E:\05_NEW RIPS\Complete BN Recordings (Larry Young)\disc 4\403 - Beyond All Limits (Larry Young - Complete BN Recordings).wav
     Pre-gap length  0:00:02.10
     Peak level 90.8 %
     Track quality 100.0 %
     Test CRC E8D2EDF1
     Copy CRC E8D2EDF1
     Copy OK
Track  4
     Filename E:\05_NEW RIPS\Complete BN Recordings (Larry Young)\disc 4\404 - Pavanne (Larry Young - Complete BN Recordings).wav
     Pre-gap length  0:00:01.60
     Peak level 87.3 %
     Track quality 100.0 %
     Test CRC F046A26A
     Copy CRC F046A26A
     Copy OK
Track  5
     Filename E:\05_NEW RIPS\Complete BN Recordings (Larry Young)\disc 4\405 - Of Love And Peace (Larry Young - Complete BN Recordings).wav
     Pre-gap length  0:00:01.88
     Peak level 71.4 %
     Track quality 100.0 %
     Test CRC 2148DE14
     Copy CRC 2148DE14
     Copy OK
Track  6
     Filename E:\05_NEW RIPS\Complete BN Recordings (Larry Young)\disc 4\406 - Seven Steps To Heaven (Larry Young - Complete BN Recordings).wav
     Pre-gap length  0:00:02.00
     Peak level 92.2 %
     Track quality 100.0 %
     Test CRC BAAC7120
     Copy CRC BAAC7120
     Copy OK
Track  7
     Filename E:\05_NEW RIPS\Complete BN Recordings (Larry Young)\disc 4\407 - Falaq (Larry Young - Complete BN Recordings).wav
     Pre-gap length  0:00:01.40
     Peak level 86.9 %
     Track quality 100.0 %
     Test CRC 6A2E39D3
     Copy CRC 6A2E39D3
     Copy OK
No errors occured
End of status report

Отчёт auCDtect Task manager:

Код:
PERFORMER: auCDtect Task Manager, ver. 1.6.0 RC1 build 1.6.0.1
Copyright (c) 2008-2010 y-soft. All rights reserved
http://y-soft.org
ANALYZER: auCDtect: CD records authenticity detector, version 0.8.2
Copyright (c) 2004 Oleg Berngardt. All rights reserved.
Copyright (c) 2004 Alexander Djourik. All rights reserved.
FILE: 407 - Falaq.flac
  Size: 63111609 Hash: 0ABD85AD8E501C5066234547B7753100 Accuracy: -m0
  Conclusion: CDDA 100%
  Signature: C8E414CDDF3645579558256F36279AAB8333696C
FILE: 406 - Seven Steps To Heaven.flac
  Size: 73431214 Hash: 99FB3FFD46073D00E60C2F6F32418CA2 Accuracy: -m0
  Conclusion: CDDA 100%
  Signature: 5922422CD21F1D1ECCD6171D6AE8A0E58FB5BB5B
FILE: 405 - Of Love And Peace.flac
  Size: 38171051 Hash: DA3F2F1FC5A33B63F1B561D9F24E72CA Accuracy: -m0
  Conclusion: CDDA 100%
  Signature: AA8192B893C2B4EE39164419AD5ED20932E06369
FILE: 404 - Pavanne.flac
  Size: 103466294 Hash: 9AA615DC7E8245E5B40AA29AFE7092E4 Accuracy: -m0
  Conclusion: CDDA 99%
  Signature: DF2E81F3547F0A743849B58038E07D5ABFC7EDBF
FILE: 403 - Beyond All Limits.flac
  Size: 42015184 Hash: 6030969065DFB5D601FA6706AB6CBF86 Accuracy: -m0
  Conclusion: CDDA 100%
  Signature: D460A134ED8A149A49EA4FE9EB06AB2275AD5E6C
FILE: 402 - Softly As In A Morning Sunrise.flac
  Size: 43783939 Hash: 776EA2C4F8830BC4E2B96C8FAEA60C0D Accuracy: -m0
  Conclusion: CDDA 100%
  Signature: 83961676889FB80332D7555D8BF5C9A762F522D2
FILE: 401 - The Moontrane.flac
  Size: 48892442 Hash: 759FF314A585308A38B2DB4651C2EB18 Accuracy: -m0
  Conclusion: CDDA 100%
  Signature: 2A9DEED960E70F48FA5AC06A16A1FE1D2DF5FEEA

Спектрограмма

 

CD5

Продолжительность: 00:59:02
Трек лист:
01. Majestic Soul (11:59)
02. Evening (7:12)
03. Major Affair (3:51)
04. Wild Is The Wind (4:31)
05. Tender Feelings (6:52)
06. Means Happiness (4:47)
07. The Infant (6:03)
08. The Cradle (5:04)
09. The Hereafter (8:42)

Отчёт ЕАС:

Код:
EAC extraction logfile from 11. March 2006, 2:19 for CD
Larry Young / Complete BN Recordings
Used drive  : PLEXTOR CD-R   PX-W4824A   Adapter: 1  ID: 0
Read mode   : Secure with C2, accurate stream, disable cache
Read offset correction : 98
Overread into Lead-In and Lead-Out : Yes
Used output format : C:\Program Files\Exact Audio Copy\flac.exe   (User Defined Encoder)
                     320 kBit/s
                     Additional command line options : -8 -V -T "artist=%a" -T "title=%t" -T "album=%g" -T "date=%y" -T "tracknumber=%n" -T "genre=%m" %s
Other options      :
    Fill up missing offset samples with silence : Yes
    Delete leading and trailing silent blocks : No
    Native Win32 interface for Win NT & 2000
Track  1
     Filename E:\05_NEW RIPS\Complete BN Recordings (Larry Young)\disc 5\501 - Majestic Soul (Larry Young - Complete BN Recordings).wav
     Pre-gap length  0:00:02.42
     Peak level 98.7 %
     Track quality 100.0 %
     Test CRC 8D2AAADA
     Copy CRC 8D2AAADA
     Copy OK
Track  2
     Filename E:\05_NEW RIPS\Complete BN Recordings (Larry Young)\disc 5\502 - Evening (Larry Young - Complete BN Recordings).wav
     Pre-gap length  0:00:03.17
     Peak level 91.8 %
     Track quality 100.0 %
     Test CRC 7E0D9A49
     Copy CRC 7E0D9A49
     Copy OK
Track  3
     Filename E:\05_NEW RIPS\Complete BN Recordings (Larry Young)\disc 5\503 - Major Affair (Larry Young - Complete BN Recordings).wav
     Pre-gap length  0:00:02.36
     Peak level 81.9 %
     Track quality 99.9 %
     Test CRC D71D769E
     Copy CRC D71D769E
     Copy OK
Track  4
     Filename E:\05_NEW RIPS\Complete BN Recordings (Larry Young)\disc 5\504 - Wild Is The Wind (Larry Young - Complete BN Recordings).wav
     Pre-gap length  0:00:01.36
     Peak level 84.4 %
     Track quality 100.0 %
     Test CRC 333AFAB5
     Copy CRC 333AFAB5
     Copy OK
Track  5
     Filename E:\05_NEW RIPS\Complete BN Recordings (Larry Young)\disc 5\505 - Tender Feelings (Larry Young - Complete BN Recordings).wav
     Pre-gap length  0:00:02.10
     Peak level 88.0 %
     Track quality 100.0 %
     Test CRC 469A3DE2
     Copy CRC 469A3DE2
     Copy OK
Track  6
     Filename E:\05_NEW RIPS\Complete BN Recordings (Larry Young)\disc 5\506 - Means Happiness (Larry Young - Complete BN Recordings).wav
     Pre-gap length  0:00:01.46
     Peak level 100.0 %
     Track quality 100.0 %
     Test CRC 690FB4E7
     Copy CRC 690FB4E7
     Copy OK
Track  7
     Filename E:\05_NEW RIPS\Complete BN Recordings (Larry Young)\disc 5\507 - The Infant (Larry Young - Complete BN Recordings).wav
     Pre-gap length  0:00:01.82
     Peak level 99.6 %
     Track quality 100.0 %
     Test CRC 4813ABAA
     Copy CRC 4813ABAA
     Copy OK
Track  8
     Filename E:\05_NEW RIPS\Complete BN Recordings (Larry Young)\disc 5\508 - The Cradle (Larry Young - Complete BN Recordings).wav
     Pre-gap length  0:00:02.00
     Peak level 93.1 %
     Track quality 100.0 %
     Test CRC 83D5323A
     Copy CRC 83D5323A
     Copy OK
Track  9
     Filename E:\05_NEW RIPS\Complete BN Recordings (Larry Young)\disc 5\509 - The Hereafter (Larry Young - Complete BN Recordings).wav
     Pre-gap length  0:00:02.06
     Peak level 97.5 %
     Track quality 100.0 %
     Test CRC 93D43C5F
     Copy CRC 93D43C5F
     Copy OK
No errors occured
End of status report

Отчёт auCDtect Task manager:

Код:
PERFORMER: auCDtect Task Manager, ver. 1.6.0 RC1 build 1.6.0.1
Copyright (c) 2008-2010 y-soft. All rights reserved
http://y-soft.org
ANALYZER: auCDtect: CD records authenticity detector, version 0.8.2
Copyright (c) 2004 Oleg Berngardt. All rights reserved.
Copyright (c) 2004 Alexander Djourik. All rights reserved.
FILE: 509 - The Hereafter.flac
  Size: 58283235 Hash: 74C4EA526BA907D2ACD874BE53C260B6 Accuracy: -m0
  Conclusion: CDDA 100%
  Signature: 14D8B70EF22FAC745BA3BDA410E4FFCB07B82C04
FILE: 508 - The Cradle.flac
  Size: 31697117 Hash: F75F046E77FE146218E2D19D90D596D2 Accuracy: -m0
  Conclusion: CDDA 100%
  Signature: C453D5DDE5E9621E24593E6F30E71466147C6853
FILE: 507 - The Infant.flac
  Size: 41739358 Hash: BA31EC3FACBC8B4E1E3F576AF67DAB64 Accuracy: -m0
  Conclusion: CDDA 99%
  Signature: 937FF3849C9DC4DED4EA713AE68007608291A74B
FILE: 506 - Means Happiness.flac
  Size: 32348431 Hash: BF73950486CF67190FC496073A956FC7 Accuracy: -m0
  Conclusion: CDDA 99%
  Signature: 1647F2E1A20C34A5018F7C0627E610004423397C
FILE: 505 - Tender Feelings.flac
  Size: 47391153 Hash: A71975E1194C3E1692C6097B02EA7528 Accuracy: -m0
  Conclusion: CDDA 99%
  Signature: C2DEDFB9A4573423DEFFBCED33C9D3F7A613EB6E
FILE: 504 - Wild Is The Wind.flac
  Size: 23211459 Hash: 924600737D3156A87E56C8694F2A8DE5 Accuracy: -m0
  Conclusion: CDDA 100%
  Signature: A38C9CB1F0B0551F84A72FA94292C49D0BBDB1A1
FILE: 503 - Major Affair.flac
  Size: 24852996 Hash: C1BECAC893C8BCEC27373F47E80D0AEA Accuracy: -m0
  Conclusion: CDDA 100%
  Signature: F83F4CB27095E26B594D9628C80408B49D029AC3
FILE: 502 - Evening.flac
  Size: 47191037 Hash: 5A9A5FE3F1B310006C3C746227269B13 Accuracy: -m0
  Conclusion: CDDA 100%
  Signature: 9140530E3E798C0291AD5A3A29EFF284CB5EF427
FILE: 501 - Majestic Soul.flac
  Size: 84939030 Hash: 9F7C082824BBB89492BAE54B6950AE7D Accuracy: -m0
  Conclusion: CDDA 100%
  Signature: A6EE37D96AE98A799944291139FEEC38F5A4C1B5

Спектрограмма

 

CD6

Продолжительность: 00:59:39
Трек лист:
01. Heaven On Earth (6:08)
02. Call Me (7:29)
03. My Funny Valentine (4:41)
04. Mother Ship (7:39)
05. Street Scene (6:57)
06. Visions (6:44)
07. Trip Merchant (12:54)
08. Love Drops (7:06)

Отчёт ЕАС:

Код:
EAC extraction logfile from 11. March 2006, 13:58 for CD
Larry Young / Complete BN Recordings
Used drive  : PLEXTOR CD-R   PX-W4824A   Adapter: 1  ID: 0
Read mode   : Secure with C2, accurate stream, disable cache
Read offset correction : 98
Overread into Lead-In and Lead-Out : Yes
Used output format : C:\Program Files\Exact Audio Copy\flac.exe   (User Defined Encoder)
                     320 kBit/s
                     Additional command line options : -8 -V -T "artist=%a" -T "title=%t" -T "album=%g" -T "date=%y" -T "tracknumber=%n" -T "genre=%m" %s
Other options      :
    Fill up missing offset samples with silence : Yes
    Delete leading and trailing silent blocks : No
    Native Win32 interface for Win NT & 2000
Track  1
     Filename E:\05_NEW RIPS\Complete BN Recordings (Larry Young)\disc 6\601 - Heaven On Earth (Larry Young - Complete BN Recordings).wav
     Pre-gap length  0:00:02.42
     Peak level 100.0 %
     Track quality 100.0 %
     Test CRC 15DED0C1
     Copy CRC 15DED0C1
     Copy OK
Track  2
     Filename E:\05_NEW RIPS\Complete BN Recordings (Larry Young)\disc 6\602 - Call Me (Larry Young - Complete BN Recordings).wav
     Pre-gap length  0:00:02.29
     Peak level 89.4 %
     Track quality 100.0 %
     Test CRC 16CDF474
     Copy CRC 16CDF474
     Copy OK
Track  3
     Filename E:\05_NEW RIPS\Complete BN Recordings (Larry Young)\disc 6\603 - My Funny Valentine (Larry Young - Complete BN Recordings).wav
     Pre-gap length  0:00:01.93
     Peak level 61.7 %
     Track quality 99.9 %
     Test CRC D3F1D51A
     Copy CRC D3F1D51A
     Copy OK
Track  4
     Filename E:\05_NEW RIPS\Complete BN Recordings (Larry Young)\disc 6\604 - Mother Ship (Larry Young - Complete BN Recordings).wav
     Pre-gap length  0:00:01.98
     Peak level 91.8 %
     Track quality 100.0 %
     Test CRC D04982DD
     Copy CRC D04982DD
     Copy OK
Track  5
     Filename E:\05_NEW RIPS\Complete BN Recordings (Larry Young)\disc 6\605 - Street Scene (Larry Young - Complete BN Recordings).wav
     Pre-gap length  0:00:01.82
     Peak level 100.0 %
     Track quality 100.0 %
     Test CRC F1506830
     Copy CRC F1506830
     Copy OK
Track  6
     Filename E:\05_NEW RIPS\Complete BN Recordings (Larry Young)\disc 6\606 - Visions (Larry Young - Complete BN Recordings).wav
     Pre-gap length  0:00:02.00
     Peak level 98.3 %
     Track quality 100.0 %
     Test CRC 64062CAF
     Copy CRC 64062CAF
     Copy OK
Track  7
     Filename E:\05_NEW RIPS\Complete BN Recordings (Larry Young)\disc 6\607 - Trip Merchant (Larry Young - Complete BN Recordings).wav
     Pre-gap length  0:00:02.02
     Peak level 100.0 %
     Track quality 99.9 %
     Test CRC 51A15584
     Copy CRC 2D80FD04
     Copy OK
Track  8
     Filename E:\05_NEW RIPS\Complete BN Recordings (Larry Young)\disc 6\608 - Love Drops (Larry Young - Complete BN Recordings).wav
     Pre-gap length  0:00:01.56
     Peak level 100.0 %
     Track quality 100.0 %
     Test CRC 5D7CA813
     Copy CRC 5D7CA813
     Copy OK
No errors occured
End of status report

Отчёт auCDtect Task manager:

Код:
PERFORMER: auCDtect Task Manager, ver. 1.6.0 RC1 build 1.6.0.1
Copyright (c) 2008-2010 y-soft. All rights reserved
http://y-soft.org
ANALYZER: auCDtect: CD records authenticity detector, version 0.8.2
Copyright (c) 2004 Oleg Berngardt. All rights reserved.
Copyright (c) 2004 Alexander Djourik. All rights reserved.
FILE: 608 - Love Drops.flac
  Size: 45577264 Hash: 1959167E53FD08CF8BCAA35815F6FB34 Accuracy: -m0
  Conclusion: CDDA 100%
  Signature: E347E4F3C3BE4DC33F1D1989D15493B4264E7207
FILE: 607 - Trip Merchant.flac
  Size: 79062765 Hash: 79C4BC9C48C526F6E392041F066B3335 Accuracy: -m0
  Conclusion: CDDA 100%
  Signature: 0491961F795C784A9A9C6C6FB0928DD9888CD6E9
FILE: 606 - Visions.flac
  Size: 41439935 Hash: 325AB3CAA8B50BA9316BEA3DE1D2C3A4 Accuracy: -m0
  Conclusion: CDDA 100%
  Signature: 0F8C6CD04833920229CBEED013A2AD637A037A47
FILE: 605 - Street Scene.flac
  Size: 38493331 Hash: 7C24C5628EC61843D5C468B1EC38FEFE Accuracy: -m0
  Conclusion: CDDA 100%
  Signature: 7A0400995D592F02AA273837C14782C895B74503
FILE: 604 - Mother Ship.flac
  Size: 45553269 Hash: 99DF5DFCC488822629B59E6A00B35A6E Accuracy: -m0
  Conclusion: CDDA 100%
  Signature: 87A38EF573A6B3B1AD904E0E58E861E5C019ADFD
FILE: 603 - My Funny Valentine.flac
  Size: 24649096 Hash: 88E95027A45E270D615138CC089D1623 Accuracy: -m0
  Conclusion: CDDA 100%
  Signature: AA840180DA00A5A238DDB7B78F50CD4967A76203
FILE: 602 - Call Me.flac
  Size: 50412500 Hash: 580294F016763D82EAEEFB11F68298B6 Accuracy: -m0
  Conclusion: CDDA 100%
  Signature: 06E028D3109170472F512BE1361A31C11AB3E379
FILE: 601 - Heaven On Earth.flac
  Size: 38986992 Hash: D8D7DFCB766C8E9B8F1A6BF1F8D62C3B Accuracy: -m0
  Conclusion: CDDA 86%
  Signature: 6A071836E1D7A1BA7FEC039C5D448510DE0D3468

Спектрограмма

 

Covers

   

Дополнительная информация

-Ларри Янг
Американский пианист и органист, родился 7октября 1940 года в Ньюарк, штат Нью-Джерси, США. От отца (профессионального музыканта) получил первые уроки игры на фортепиано и органе. Работал по ангажементам в различных ритм-энд-блюзовых группах (1957). Дебютировал как руководитель студийного оркестра, с которым записал свой первый альбом ("Grооve Street") (1962). Гастролировал в Европе, заслужив высокую оценку критики и публики (1964). Испытав сильное воздействие Дж. Колтрэйна, изменил стилевую ориентацию и примкнул к музыкантам нового бопа и фри-джаза. Создал новое хард-боп-комбо с участием Вуди Шоу и Элвина Джонса (LР "Unitу") (1965). Играл на электропиано в группе М. Дэйвиса, участвовал с ним в создании экспериментального альбома "Вitсhes Вrew" (1970), ознаменовавшего возникновение рок-джаза, затем сотрудничал с гитаристом Дж. Маклафлином (1970) и перкуссионистом Тони Уильямсом (в фьюжн-группе Life Time, 1969-1971). Из записей заслуживают упоминания: с группой Life Тime Т. Уильямса ("Еmergenсу" — 1969, "Еgо" – 1971), барабанщиком Джо Чемберсом ("Dоuble Ехpоsure" — 1977), рок-гитаристом Джими Хендриксом ("Nine То Тhe Universe" —1980). Видный представитель необопа, фри-джаза, фьюжна и рок-джаза, один из лучших современных джазовых органистов. Темпераментный, динамичный музыкант-клавишник, первоклассный мастер импровизации. С гитаристом Дж. Бладом Алмером осуществил синтез фри-джаза и афро-американского фанк-рока, став одним из основоположников нового направления (фри-фанк). Как многие представители афро-американского лагеря в авангардном джазе принял ислам и получил мусульманское имя (Кhаlid уаsin). Умер в возрасте 38 лет, не успев в полной мере реализовать свои новаторские амбиции и замыслы.--Время раздачи: 24/7
Other forum [Profile] [PM]

Dracula

Longevity: 6 years 1 month

Posts: 10688

Торрент-статистика

Post 16-Jun-2013 08:04 (after 5 hours)

Топик был перенесен из форума Jazz в форум Музыка других жанров


p2000s
 
Display posts from previous:    
Reply to topic

The time now is: Today 18:25

All times are GMT + 3 Hours



You cannot post new topics in this forum
You cannot reply to topics in this forum
You cannot edit your posts in this forum
You cannot delete your posts in this forum
You cannot vote in polls in this forum
You cannot attach files in this forum
You cannot download files in this forum