Сегодня идет свободное скачивание без начисления Download

Копы - новобранцы / Rookie Blue (3 сезон: 13 серии из 13) (2012) WEB-DLRip | Diva Universal

Ответить на тему
 
Автор
Сообщение

UndegraundMen ®

Стаж: 5 лет 3 месяца

Сообщений: 25871

Торрент-статистика

Пост 16-Июн-2013 03:01

[Цитировать]

Копы - новобранцы / Rookie Blue (3 сезон: 13 серии из 13) (2012) WEB-DLRip | Diva Universal
«Training's over. Life begins.»
- Русское название: Копы - новобранцы
Оригинальное название: Rookie Blue
Год выпуска: 2012
Жанр: Криминал, Драма
Перевод: Многоголосый закадровый, профессиональный
Автор перевода: Diva Universal
Субтитры: Отсутствуют
Описание фильма:Драма о пяти копах-новичках, которым приходится изучать основы профессии, работая полицейскими в большом городе. Любая ошибка может стать смертельной. Нам покажут, как пятеро главных героев учились в полицейской академии. А теперь они вместе работают. И первое, что им придется узнать — никакая академия не подготовит их к жизни.Режиссер: Дэвид Уэллингтон, Джон Фоусет, Стив ДиМарко
Актеры: Мисси Перегрим, Энука Окума, Шарлотта Салливан, Бен Басс, Грегори Смит, Трэвис Милн, Эрик Джонсон, Мэтт Гордон, Ноам Дженкинс, Мелани Николллз-Кинг, Лайрик Бент, Аарон Абрамс, Камилль Салливан, Энтони Юлк, Эйдан Дивайн
Продолжительность: 13 x ~ 00:43:02

Дата мировой премьеры: 24 июня 2010
Дата российской премьеры: 19 сентября 2010
Видеокодек: AVI (XviD)
Битрейт видео: ~1354 Kbps
Размер кадра: 720х400
Качество видео: WEB-DLRip
Аудио #1 MP3, 2 ch, 128 kb/s (Английский)
Аудио #2 MP3, 2 ch, 128 kb/s (Русский)

MediaInfo:

General
Format : AVI
Format/Info : Audio Video Interleave
File size : 500 MiB
Duration : 43mn 4s
Overall bit rate : 1 623 Kbps
Writing application : VirtualDubMod 1.5.10.2 (build 2540/release)
Writing library : VirtualDubMod build 2540/release
Video
ID : 0
Format : MPEG-4 Visual
Format profile : Advanced Simple@L5
Format settings, BVOP : 2
Format settings, QPel : No
Format settings, GMC : No warppoints
Format settings, Matrix : Default (MPEG)
Codec ID : XVID
Codec ID/Hint : XviD
Duration : 43mn 4s
Bit rate : 1 353 Kbps
Width : 720 pixels
Height : 400 pixels
Display aspect ratio : 16:9
Frame rate : 23.976 fps
Color space : YUV
Chroma subsampling : 4:2:0
Bit depth : 8 bits
Scan type : Progressive
Compression mode : Lossy
Bits/(Pixel*Frame) : 0.196
Stream size : 417 MiB (83%)
Writing library : XviD 64
Audio #1
ID : 1
Format : MPEG Audio
Format version : Version 1
Format profile : Layer 3
Mode : Joint stereo
Mode extension : MS Stereo
Codec ID : 55
Codec ID/Hint : MP3
Duration : 43mn 4s
Bit rate mode : Constant
Bit rate : 128 Kbps
Channel(s) : 2 channels
Sampling rate : 48.0 KHz
Compression mode : Lossy
Stream size : 39.4 MiB (8%)
Alignment : Aligned on interleaves
Interleave, duration : 42 ms (1.00 video frame)
Interleave, preload duration : 504 ms
Audio #2
ID : 2
Format : MPEG Audio
Format version : Version 1
Format profile : Layer 3
Mode : Joint stereo
Mode extension : MS Stereo
Codec ID : 55
Codec ID/Hint : MP3
Duration : 43mn 4s
Bit rate mode : Constant
Bit rate : 128 Kbps
Channel(s) : 2 channels
Sampling rate : 48.0 KHz
Compression mode : Lossy
Stream size : 39.4 MiB (8%)
Alignment : Aligned on interleaves
Interleave, duration : 42 ms (1.00 video frame)
Interleave, preload duration : 504 ms
Скриншоты:
         
-
Вне форума [Профиль] [ЛС]
Показать сообщения:    
Ответить на тему

Текущее время: Сегодня 14:36

Часовой пояс: GMT + 3



Вы не можете начинать темы
Вы не можете отвечать на сообщения
Вы не можете редактировать свои сообщения
Вы не можете удалять свои сообщения
Вы не можете голосовать в опросах
Вы не можете прикреплять файлы к сообщениям
Вы не можете скачивать файлы