Сегодня идет свободное скачивание без начисления Download

Спартак: Месть / Spartacus: Vengeance (2012) HDRip (Сезон 2, Серии 1-10 из 10) (РенТВ)

Ответить на тему
 
Автор
Сообщение

UndegraundMen ®

Стаж: 5 лет 10 месяцев

Сообщений: 25860

Торрент-статистика

Пост 16-Июн-2013 03:01

[Цитировать]

Спартак: Месть / Spartacus: Vengeance (2012) HDRip (Сезон 2, Серии 1-10 из 10)- Русское название: Спартак: Месть
Оригинальное название: Spartacus: Vengeance
Год выпуска: 2012
Жанр: боевик, драма, приключения, биография
Страна: США
Перевод: Дублированный РенТВ
Вид субтитров: forced (на не переведенные места)
Язык субтитров: русский
Режиссер: Майкл Херст, Джесси Уарн, Рик Джейкобсон
Актеры: Лиам Макинтайр, Ману Беннетт, Дастин Клер, Синтия Аддай-Робинсон, Питер Менса, Ник Тарабэй, Люси Лоулесс, Вива Бьянка, Крэйг Паркер
Описание фильма:
Вслед за кровавым побегом из дома Батиата, восстание гладиаторов начинает вселять страх в сердце Римской республики. Гай Клавдий Глабр и его римские войска направляются в Капую разбить, с каждым днём растущую группу освобожденных рабов, под предводительством лучшего римского гладиатора Спартака. Спартаку выпадает шанс отомстить человеку обрекшего его на рабство, а его жену на смерть. Вы увидите невероятную историю мести Спартака, всю кровь пролившуюся на римские земли во время восстания, самый страстный секс, подлость, предательства, героизм

Продолжительность: 10 х ~00:57:00
Качество видео: HDRip
За Рип Спасибо uapushkinua
Видеокодек: Xvid
Битрейт видео: ~1723 kb/s
Размер кадра: 704х400
Аудиокодек: AC3 2 ср
Битрейт аудио: 192 kb/s

Список серий

01: Fugitivus / Беглый
02: A Place in this World / Место в этом мире
03: The Greater Good / Высшее благо
04: Empty Hands / Пустые руки
05: Libertus / Вольный
06: Chosen Path / Избранный путь
07: Sacramentum / Клятва
08: Balance / Чаши весов
09: Monsters / Чудовища
10: Wrath of the Gods / Гнев богов

MediaInfo

Формат : AVI
Формат/Информация : Audio Video Interleave
Размер файла : 792 Мбайт
Продолжительность : 57 м.
Общий поток : 1924 Кбит/сек
Название фильма : Спартак: Месть. Сезон 2 / Spartacus: Vengeance. Season 2 (2012)
Программа кодирования : VirtualDubMod 1.5.10.2 (build 2540/release)
Библиотека кодирования : VirtualDubMod build 2540/release
Видео
Идентификатор : 0
Формат : MPEG-4 Visual
Профиль формата : Advanced Simple@L5
Параметр BVOP формата : 2
Параметр QPel формата : Нет
Параметр GMC формата : Без точки перехода
Параметр матрицы формата : Default (MPEG)
Идентификатор кодека : XVID
Идентификатор кодека/Подсказка : XviD
Продолжительность : 57 м.
Битрейт : 1723 Кбит/сек
Ширина : 704 пикселя
Высота : 400 пикселей
Соотношение сторон : 16:9
Частота кадров : 23,976 кадра/сек
Цветовое пространство : YUV
Субдискретизация насыщенности : 4:2:0
Битовая глубина : 8 бит
Тип развёртки : Прогрессивная
Метод сжатия : С потерями
Бит/(Пиксели*Кадры) : 0.255
Размер потока : 709 Мбайт (90%)
Библиотека кодирования : XviD 1.2.1 (UTC 2008-12-04)
Аудио
Идентификатор : 1
Формат : AC-3
Формат/Информация : Audio Coding 3
Расширение режима : CM (complete main)
Параметр Endianness формата : Big
Идентификатор кодека : 2000
Продолжительность : 57 м.
Вид битрейта : Постоянный
Битрейт : 192 Кбит/сек
Каналы : 2 канала
Расположение каналов : Front: L R
Частота : 48,0 КГц
Битовая глубина : 16 бит
Метод сжатия : С потерями
Размер потока : 79,1 Мбайт (10%)
Выравнивание : Разделение по промежуткам
Продолжительность промежутка : 42 мс. (1,00 видеокадр)
Время предзагрузки промежутка : 500 мс.
Заголовок : Профессиональный (полное дублирование) РенТВ
Скриншоты:
         
       
Вне форума [Профиль] [ЛС]
Похожие темы
Форум Тема Автор Торрент Отв. Посл. сообщение
./templates/default/images/folder_dl.gif Обучающее видео Роман Пузат | Марафон Спарта [март] (2017) PCRec Omen
1 | 0

0 | 1125

16

2016-03-09 18:13
Omen Последнее
Показать сообщения:    
Ответить на тему

Текущее время: Сегодня 17:44

Часовой пояс: GMT + 3



Вы не можете начинать темы
Вы не можете отвечать на сообщения
Вы не можете редактировать свои сообщения
Вы не можете удалять свои сообщения
Вы не можете голосовать в опросах
Вы не можете прикреплять файлы к сообщениям
Вы не можете скачивать файлы