Сегодня идет свободное скачивание без начисления Download

Борджиа / The Borgias (Сезон 3, полный) [LostFilm] (Нил Джордан / Neil Jordan ...) [2013 г.] (Драма, Криминал, История) [HDTVRip] (MVO)

Ответить на тему
 
Автор
Сообщение

Omen ®

Стаж: 5 лет 6 месяцев

Сообщений: 186946

Торрент-статистика

Пост 13-Июн-2013 06:51

[Цитировать]

Борджиа
The Borgias

«Flesh and Blood»
- Русское название: Борджиа
Оригинальное название: The Borgias
Страна: Венгрия, Ирландия, Канада
Год выпуска: 2013
Жанр: Драма, Криминал, История ...-Озвучка: Студия LostFilm
Перевод: Многоголосый закадровый, профессиональный-Режиссер: Нил Джордан / Neil Jordan ...
В главных ролях: Джереми Айронс, Франсуа Арно, Холли Грэйнджер, Дэвид Оукс, Лотте Вербеек, Питер Салливан, Джоэнн Уэлли, Колм Фиор и др.-Описание фильма:
В центре повествования — знаменитое семейство Борджиа, достигшее вершин власти в Италии эпохи Возрождения.
Слоган сериала: «Секс. Власть. Убийство. Аминь.» — полностью характеризует безжалостную политику и сексуальную распущенность, которыми запомнились в истории папа римский Александр VI, в миру Родриго Борджиа, и члены его семьи.-Сезон: 3
Серии: 10 из 10 серий
Продолжительность: ~ 00:51:00 мин серия-Качество видео: HDTVRip
Формат: AVI
Видеокодек: XviD
Аудиокодек: Mp3
Видео: MPEG-4 Visual at 1205 Кбит/сек, 720 x 400 (1.800) at 23.976 fps
Аудио: MPEG Audio at 192 Кбит/сек, 2 канала, 48,0 КГц
- -

Список серий:

  • Лик смерти (The Face of Death)
  • Очищение (The Purge)
  • Братья и сестры (Siblings)
  • Каштановый банкет (The Banquet of Chestnuts)
  • Волк и ягненок (The Wolf and the Lamb)
  • Реликвии (Relics)
  • Гамбит Лукреции (Lucrezia's Gambit)
  • Кровавые слезы (Tears of Blood)
  • Пороховой заговор (The Gunpowder Plot)
  • Государь (The Prince)
-

MediaInfo:

Код:
Общее
Полное имя                               : E:\_Сериалы\Борджиа\Borgias 3 - LostFilm\The.Borgias.S03E01.rus.LostFilm.TV.avi
Формат                                   : AVI
Формат/Информация                        : Audio Video Interleave
Размер файла                             : 519 Мбайт
Продолжительность                        : 51 м.
Режим общего битрейта                    : Переменный
Общий поток                              : 1404 Кбит/сек
Программа кодирования                    : Nandub v1.0rc2
Библиотека кодирования                   : Nandub build 1853/release
Видео
Идентификатор                            : 0
Формат                                   : MPEG-4 Visual
Профиль формата                          : Simple@L3
Параметр BVOP формата                    : Нет
Параметр QPel формата                    : Нет
Параметр GMC формата                     : Без точки перехода
Параметр матрицы формата                 : Default (H.263)
Идентификатор кодека                     : XVID
Идентификатор кодека/Подсказка           : XviD
Продолжительность                        : 51 м.
Битрейт                                  : 1205 Кбит/сек
Ширина                                   : 720 пикселей
Высота                                   : 400 пикселей
Соотношение сторон                       : 16:9
Частота кадров                           : 23,976 кадра/сек
Цветовое пространство                    : YUV
Субдискретизация насыщенности            : 4:2:0
Битовая глубина                          : 8 бит
Тип развёртки                            : Прогрессивная
Метод сжатия                             : С потерями
Бит/(Пиксели*Кадры)                      : 0.175
Размер потока                            : 445 Мбайт (86%)
Библиотека кодирования                   : XviD 1.2.1 (UTC 2008-12-04)
Аудио
Идентификатор                            : 1
Формат                                   : MPEG Audio
Версия формата                           : Version 1
Профиль формата                          : Layer 3
Режим                                    : Joint stereo
Идентификатор кодека                     : 55
Идентификатор кодека/Подсказка           : MP3
Продолжительность                        : 51 м.
Вид битрейта                             : Переменный
Битрейт                                  : 192 Кбит/сек
Каналы                                   : 2 канала
Частота                                  : 48,0 КГц
Метод сжатия                             : С потерями
Размер потока                            : 68,9 Мбайт (13%)
Выравнивание                             : Соединение по промежуткам
Продолжительность промежутка             : 24  мс. (0,58 видеокадр)
Время предзагрузки промежутка            : 529  мс.
Библиотека кодирования                   : LAME3.97b
Настройки программы                      : -m j -V 4 -q 3 -lowpass 18.6 --abr 192
645308
-

Внимание! Раздача ведётся путём добавления новых серий!

Внимание! Раздача ведётся путём добавления новых серий; при каждом добавлении создётся новый торрент. Чтобы начать докачку новой серии, пользователям необходимо сделать следующее:
(1) остановить скачивание,
(2) удалить старый торрент у себя из клиента (старые серии удалять не надо),
(3) скачать новый торрент и запустить его у себя в клиенте вместо старого, при этом указать клиенту путь в старую папку куда и должно происходить скачивание новых серий.
Ваш клиент при этом должен произвести хеширование (проверку) старой папки (если не производит сам - помогите ему сделать это), и будет докачивать только те серии которых у вас ещё нет. Старые серии при этом не удаляются, а продолжают раздаваться!
Eсли вы уже удалили старые серии, то предотвратить повторную закачку старых серий можно, отжав галочку в соответствующих местах при запуске нового торрента.
-Скриншоты:
       
-Добавлена десятая, заключительная, серия третьего сезона
Вне форума [Профиль] [ЛС]
Показать сообщения:    
Ответить на тему

Текущее время: Сегодня 00:22

Часовой пояс: GMT + 3



Вы не можете начинать темы
Вы не можете отвечать на сообщения
Вы не можете редактировать свои сообщения
Вы не можете удалять свои сообщения
Вы не можете голосовать в опросах
Вы не можете прикреплять файлы к сообщениям
Вы не можете скачивать файлы