Сегодня идет свободное скачивание без начисления Download

Исторические личности. Анимированная энциклопедия / Animated Hero Classics (Ричард Рич) [1991-2005., Биография, рисованная анимация]DVDRip (20 выпусков)

Ответить на тему
 
Автор
Сообщение

sashau ®

Пол:

Стаж: 6 лет 7 месяцев

Сообщений: 3535

Торрент-статистика

Пост 12-Июн-2013 17:34

[Цитировать]

Исторические личности. Анимированная энциклопедия / Animated Hero Classics - Русское название: Исторические личности. Анимированная энциклопедия
Оригинальное название: Animated Hero Classics
Год выпуска: 1991-2005
Жанр: Биография, рисованная анимация
Страна: США
Описание:
Исторические личности. Анимированная энциклопедия - самый простой и интересный способ узнать о людях, изменивших ход мировой истории. Президенты, изобретатели, художники, полководцы и другие всемирно известные персонажи в познавательной и уникальной анимации «История в лицах». Вам обязательно понравится путешествие по страницам жизни Леонардо да Винчи, Бетховена, Христофора Колумба и других исторических личностей. Этот сериал открывает новые страницы истории не только для детей, но и для взрослых
Режиссер: Ричард Рич
Продолжительность: 20 х ~00:27:00
Перевод: Многоголосый закадровый
За Рип Спасибо MVS1996
Видеокодек: Xvid
Битрейт видео: ~1495 kb/s
Размер кадра: 640х464
Качество видео: DVDRip
Аудио #1: AC3 2 ch, 192 kb/s - Русский
Аудио #2: AC3 2 ch, 192 kb/s - Английский

MediaInfo

Формат : AVI
Формат/Информация : Audio Video Interleave
Размер файла : 372 Мбайт
Продолжительность : 27 м.
Общий поток : 1894 Кбит/сек
Программа кодирования : VirtualDubMod 1.5.10.2 (build 2540/release)
Библиотека кодирования : VirtualDubMod build 2540/release
Видео
Идентификатор : 0
Формат : MPEG-4 Visual
Профиль формата : Advanced Simple@L5
Параметр BVOP формата : 2
Параметр QPel формата : Да
Параметр GMC формата : Без точки перехода
Параметр матрицы формата : Default (MPEG)
Режим смешивания : Сжатый битовый поток
Идентификатор кодека : XVID
Идентификатор кодека/Подсказка : XviD
Продолжительность : 27 м.
Битрейт : 1495 Кбит/сек
Ширина : 640 пикселей
Высота : 464 пикселя
Соотношение сторон : 1,379
Частота кадров : 23,976 кадра/сек
Цветовое пространство : YUV
Субдискретизация насыщенности : 4:2:0
Битовая глубина : 8 бит
Тип развёртки : Прогрессивная
Метод сжатия : С потерями
Бит/(Пиксели*Кадры) : 0.210
Размер потока : 294 Мбайт (79%)
Библиотека кодирования : XviD 1.1.2 (UTC 2006-11-01)
Аудио #1
Идентификатор : 1
Формат : AC-3
Формат/Информация : Audio Coding 3
Расширение режима : CM (complete main)
Параметр Endianness формата : Big
Идентификатор кодека : 2000
Продолжительность : 27 м.
Вид битрейта : Постоянный
Битрейт : 192 Кбит/сек
Каналы : 2 канала
Расположение каналов : Front: L R
Частота : 48,0 КГц
Битовая глубина : 16 бит
Метод сжатия : С потерями
Размер потока : 37,7 Мбайт (10%)
Выравнивание : Разделение по промежуткам
Продолжительность промежутка : 42 мс. (1,00 видеокадр)
Время предзагрузки промежутка : 500 мс.
Аудио #2
Идентификатор : 2
Формат : AC-3
Формат/Информация : Audio Coding 3
Расширение режима : CM (complete main)
Параметр Endianness формата : Big
Идентификатор кодека : 2000
Продолжительность : 27 м.
Вид битрейта : Постоянный
Битрейт : 192 Кбит/сек
Каналы : 2 канала
Расположение каналов : Front: L R
Частота : 48,0 КГц
Битовая глубина : 16 бит
Метод сжатия : С потерями
Размер потока : 37,7 Мбайт (10%)
Выравнивание : Разделение по промежуткам
Продолжительность промежутка : 42 мс. (1,00 видеокадр)
Время предзагрузки промежутка : 500 мс.
Скриншоты:
       
       
Вне форума [Профиль] [ЛС]
Похожие темы
Форум Тема Автор Торрент Отв. Посл. сообщение
./templates/default/images/folder_dl.gif Новинки (BD|HDTV|DVD) Легенда о Коловрате (Джаник Файзиев, Иван Шурховецкий) [2017 г., история, боевик, фэнтези, WEB-DL 1080p] iTunes Theseus
1 | 0

0 | 1492

7

2018-01-31 02:23
Theseus Последнее
./templates/default/images/folder_dl.gif Новинки (BD|HDTV|DVD) Операция «Шаровая молния» / Entebbe (Жозе Падилья) [2018 г., триллер, драма, криминал, история, BDRip 720p] DUB / MVO Theseus
1 | 0

0 | 142

1

2018-06-26 22:20
Theseus Последнее
Показать сообщения:    
Ответить на тему

Текущее время: Сегодня 03:10

Часовой пояс: GMT + 3



Вы не можете начинать темы
Вы не можете отвечать на сообщения
Вы не можете редактировать свои сообщения
Вы не можете удалять свои сообщения
Вы не можете голосовать в опросах
Вы не можете прикреплять файлы к сообщениям
Вы не можете скачивать файлы