Сегодня идет свободное скачивание без начисления Download

Красавцы / Антураж / Entourage (сезон 7, полный) (2010) HDRip

Ответить на тему
 
Автор
Сообщение

UndegraundMen ®

Стаж: 5 лет 4 месяца

Сообщений: 25870

Торрент-статистика

Пост 12-Июн-2013 04:15

[Цитировать]

Красавцы / Антураж / Entourage (сезон 7, полный) (2010) HDRip -
Русское название: Красавцы / Антураж
Оригинальное название: Entourage
Год выпуска: 2010
Жанр: Комедия, Драма
Перевод: Одноголосый закадровый, профессиональный (А. Дасевич)

СЭМПЛ
Режиссер: Джулиан Фарино, Марк Майлод, Дэниэл Эттиэс
Актеры: Кевин Коннолли, Адриан Гренье, Кевин Диллон, Джерри Феррара, Джереми Пивен, Рекс Ли, Перри Ривз, Деби Мазар, Риз Койро, Эммануэль Шрики, Саша Грей
Описание фильма:
Новый сезон, новые проблемы. Как обычно, в общем. Черепаха торгует текилой; Драма злиться на продюссеров, которые хотят сделать с ним мульт-шоу; Ари, извините, трахает мозги всем, кто задействован в аудиозаписях с искрометными комментариями по поводу его отношения к сотрудникам; Рик озабочен анальным сексом; ну а Винс... слетает с катушек, встречается с Сашей Грэй (знатоки, а ну-ка почешите правую или левую руку), и вкидывается наркотой. Тихий ужас, но сезон удачный.
Продолжительность: 10 x ~00:25
Качество видео: HDRip
Видеокодек: Xvid
Битрейт видео: ~1080 kb/s
Размер кадра: 624 x 352
Аудиокодек: AC3 2.0
Битрейт аудио: 192 kb/s

MediaInfo

Полное имя : K:\Мой винт\Entourage.s07.HDRip\Entourage.S07E01.HDRip.avi
Формат : AVI
Формат/Информация : Audio Video Interleave
Размер файла : 239 Мбайт
Продолжительность : 26 м.
Общий поток : 1281 Кбит/сек
Программа кодирования : VirtualDubMod 1.5.10.3 | www.virtualdub-fr.org || (build 2550/release)
Библиотека кодирования : VirtualDubMod build 2550/release
Видео
Идентификатор : 0
Формат : MPEG-4 Visual
Профиль формата : Advanced Simple@L5
Параметр BVOP формата : 1
Параметр QPel формата : Нет
Параметр GMC формата : Без точки перехода
Параметр матрицы формата : Default (MPEG)
Идентификатор кодека : XVID
Идентификатор кодека/Подсказка : XviD
Продолжительность : 26 м.
Битрейт : 1080 Кбит/сек
Ширина : 624 пикс.
Высота : 352 пикс.
Соотношение сторон : 16:9
Частота кадров : 23,976 кадр/сек
Цветовое пространство : YUV
Подвыборка цветности : 4:2:0
Битовая глубина : 8 бит
Тип развёртки : Прогрессивная
Метод сжатия : С потерями
Бит/(Пиксели*Кадры) : 0.205
Размер потока : 202 Мбайт (84%)
Библиотека кодирования : XviD 63
Аудио
Идентификатор : 1
Формат : AC-3
Формат/Информация : Audio Coding 3
Расширение режима : CM (complete main)
Идентификатор кодека : 2000
Продолжительность : 26 м.
Вид битрейта : Постоянный
Битрейт : 192 Кбит/сек
Канал(ы) : 2 канала(ов)
Расположение каналов : Front: L R
Частота : 48,0 КГц
Битовая глубина : 16 бит
Метод сжатия : С потерями
Размер потока : 35,8 Мбайт (15%)
Выравнивание : Разделение по промежуткам
Продолжительность промежутка : 42 мс. (1,00 видеокадр)
Время предзагрузки промежутка : 500 ms
Все раздачи Красавцы / EntourageСкриншоты:
                   
Время раздачи: 24/7 (до 10 скачавших)
Вне форума [Профиль] [ЛС]
Показать сообщения:    
Ответить на тему

Текущее время: Сегодня 13:46

Часовой пояс: GMT + 3



Вы не можете начинать темы
Вы не можете отвечать на сообщения
Вы не можете редактировать свои сообщения
Вы не можете удалять свои сообщения
Вы не можете голосовать в опросах
Вы не можете прикреплять файлы к сообщениям
Вы не можете скачивать файлы