Сегодня идет свободное скачивание без начисления Download

Гриффины (Сезон: 11 / Серии: 1-17 из ??) / Family Guy (2012) WEB-DLRip [Обновляемая]

Ответить на тему
 
Автор
Сообщение

Omen ®

Стаж: 4 года 10 месяцев

Сообщений: 190643

Торрент-статистика

Пост 11-Июн-2013 22:03

[Цитировать]

Гриффины / Family Guy ( Сезон: 11 / Серии: 1-17 из ??) (2012) WEB-DLRip [Обновляемая]- Русское название: Гриффины
Оригинальное название: Family Guy
Год выпуска: 2012
Жанр: Комедия
Описание:
Типичная американская семья, члены которой способны разбить все возможные стереотипы. А говорящая собака с сигаретой и сухим мартини… А грудной малыш, мечтающий поработить весь мир… Разве это отклонение? Это катарсис в каждом эпизоде!
Режиссер: Сет Макфарлейн
Персонажи: Питер, Лоис, Брайан, Мег, Крис, Стьюи Гриффины
Продолжительность: ~00:21:00
Перевод: Многоголосый закадровый [FiliZa Studio]- -Качество видео: WEB-DLRip
Видеокодек: Xvid
Bидео: 624x352 (1.77:1), 23.975 fps, XviD build 50 ~989 kbps avg, 0.19 bit/pixel
Аудиокодек: MP3
Aудио [1]: 48 kHz, MPEG Layer 3, 2 ch, ~128.00 kbps avg [Русский]
Aудио [2]: 48 kHz, MPEG Layer 3, 2 ch, ~128.00 kbps avg [английский]-Сэмпл: Ссылка-Реклама отсутствует!--Добавлена 17я серия. Перекачайте торрент файл!-

MediaInfo

D:\films\Family Guy - Season 11\Family.Guy.11x01.Into.Fat.Air.-FiliZa.avi
General
  • Complete name : D:\films\Family Guy - Season 11\Family.Guy.11x01.Into.Fat.Air.-FiliZa.avi
  • Format : AVI
  • Format/Info : Audio Video Interleave
  • File size : 195 MiB
  • Duration : 21mn 37s
  • Overall bit rate : 1 260 Kbps
  • Writing application : VirtualDubModRus 1.5.10.2 (build 2542/release)
  • Writing library : VirtualDubMod build 2542/release
    Video #0
  • ID : 0
  • Format : MPEG-4 Visual
  • Format profile : Advanced Simple@L5
  • Format settings, BVOP : Yes
  • Format settings, QPel : No
  • Format settings, GMC : No warppoints
  • Format settings, Matrix : Default (H.263)
  • Codec ID : XVID
  • Codec ID/Hint : XviD
  • Duration : 21mn 37s
  • Bit rate : 990 Kbps
  • Width : 624 pixels
  • Height : 352 pixels
  • Display aspect ratio : 16:9
  • Frame rate : 23.976 fps
  • Color space : YUV
  • Chroma subsampling : 4:2:0
  • Bit depth : 8 bits
  • Scan type : Progressive
  • Compression mode : Lossy
  • Bits/(Pixel*Frame) : 0.188
  • Stream size : 153 MiB (79%)
  • Writing library : XviD 1.2.1 (UTC 2008-12-04)
    Audio #1
  • ID : 1
  • Format : MPEG Audio
  • Format version : Version 1
  • Format profile : Layer 3
  • Mode : Joint stereo
  • Mode extension : MS Stereo
  • Codec ID : 55
  • Codec ID/Hint : MP3
  • Duration : 21mn 37s
  • Bit rate mode : Constant
  • Bit rate : 128 Kbps
  • Channel(s) : 2 channels
  • Sampling rate : 48.0 KHz
  • Compression mode : Lossy
  • Stream size : 19.8 MiB (10%)
  • Alignment : Aligned on interleaves
  • Interleave, duration : 42 ms (1.00 video frame)
  • Interleave, preload duration : 504 ms
    Audio #2
  • ID : 2
  • Format : MPEG Audio
  • Format version : Version 1
  • Format profile : Layer 3
  • Mode : Joint stereo
  • Mode extension : MS Stereo
  • Codec ID : 55
  • Codec ID/Hint : MP3
  • Duration : 21mn 37s
  • Bit rate mode : Constant
  • Bit rate : 128 Kbps
  • Channel(s) : 2 channels
  • Sampling rate : 48.0 KHz
  • Compression mode : Lossy
  • Stream size : 19.8 MiB (10%)
  • Alignment : Aligned on interleaves
  • Interleave, duration : 42 ms (1.00 video frame)
  • Interleave, preload duration : 504 ms
    561930

-

Список серий

01. Into Fat Air
02. Ratings Guy
03. The Old Man and the Big 'C'
04. Yug Ylimaf
05. Joe's Revenge
06. Lois Comes Out of Her Shell
07. Friends Without Benefits
08. Jesus, Mary and Joseph!
09. Space Cadet
10. Brian's Play
11. The Giggity Wife
12. Valentine's Day in Quahog
13. Chris Cross
14. Call Girl
15. Turban Cowboy
16. 12 and a Half Angry Men
17. Bigfat
-            -
Вне форума [Профиль] [ЛС]
Показать сообщения:    
Ответить на тему

Текущее время: Сегодня 10:19

Часовой пояс: GMT + 3



Вы не можете начинать темы
Вы не можете отвечать на сообщения
Вы не можете редактировать свои сообщения
Вы не можете удалять свои сообщения
Вы не можете голосовать в опросах
Вы не можете прикреплять файлы к сообщениям
Вы не можете скачивать файлы