Сегодня идет свободное скачивание без начисления Download

Кости / Bones / Сезон: 6 / Серии: 1-23 (23) (Стивен ДеПол, Йен Тойнтон, Аллен Крокер) [2010 г., драма, криминал, детектив, WEB-DL 720p] Дубляж ТВ3

Ответить на тему
 
Автор
Сообщение

Varius ®

Пол:

Стаж: 8 лет 4 месяца

Сообщений: 2685

Откуда: Hell

Торрент-статистика

Пост 17-Авг-2011 16:51

[Цитировать]

Кости / Bones-Год выпуска: 2010
Страна: США | FOX
Жанр: драма, криминал, детектив
Продолжительность: ~00:42:00
Перевод: Профессиональный (полное дублирование) ТВ3
Cубтитры: нет
Режиссёр: Стивен ДеПол, Йен Тойнтон, Аллен Крокер-В ролях: Эмили Дешанель, Дэвид Бореаназ, Михаэлла Конлин, Ти-Джей Тайн, Тамара Тейлор, Эрик Миллеган, Джон Фрэнсис Дейли, Джонатан Адамс, Патриция Белчер, Дэвид Гринман
-Описание: Доктор Темперанс Бреннан, блестящий, но одинокий антрополог получает то, чего она меньше всего желала — напарника. Бюро посылает ей амбициозного агента ФБР Сили Бута, чтобы помочь в расследовании нераскрытых дел путем изучения и идентификации костей давно пропавших людей. Но давно умершие жертвы не единственное, с чем придется столкнуться Боунс, Буту и их команде, раскрывая преступления они часто сталкиваются с взяточничеством, коррупцией и местной разрозненностью.-Доп. информация:
Релиз:
Над релизом работали: Alexander_Kozlov (Taz), OgreS2009
-Качество: WEB-DL 720p
Формат: MKV
Видео кодек: H.264
Аудио кодек: AC3
Видео: AVC, 1280x720 (16:9), 23,976 fps, 4000 Кбит/с, 0.172 bit/pixel
Аудио Rus: 48 kHz, AC3 Dolby Digital, 2/0 (L,R) ch, ~192.00 kbps avg
Аудио Eng: 48 kHz, AC3 Dolby Digital, 3/2 (L,C,R,l,r) + LFE ch, ~384.00 kbps avg-

Внимание! Раздача ведётся путём добавления новых серий

Внимание! Раздача ведётся путём добавления новых серий; при каждом добавлении создаётся новый торрент. Чтобы начать докачку новой серии, пользователям необходимо сделать следующее:
(1) остановить скачивание,
(2) удалить старый торрент у себя из клиента (старые серии удалять не надо),
(3) скачать новый торрент и запустить его у себя в клиенте вместо старого, при этом указать клиенту путь в старую папку куда и должно происходить скачивание новых серий.
Ваш клиент при этом должен произвести хеширование (проверку) старой папки (если не производит сам - помогите ему сделать это), и будет докачивать только те серии которых у вас ещё нет. Старые серии при этом не удаляются, а продолжают раздаваться!
Eсли вы уже удалили старые серии, то предотвратить повторную закачку старых серий можно, отжав галочку в соответствующих местах при запуске нового торрента. По возможности, желательно не удалять старые серии как можно дольше чтобы релизёр не столько продолжал раздавать старые серии, а смог сконцентрироваться на новых.
-

Список серий

01. The Mastodon in the Room
02. The Couple in the Cave
03. The Maggots in the Meathead
04. The Body and the Bounty
05. The Bones that Weren't
06. The Shallow in the Deep
07. The Babe in the Bar
08. The Twisted Bones in the Melted Truck
09. The Doctor in the Photo
10. The Body in the Bag
11. The Bullet in the Brain
12. The Sin in the Sisterhood
13. The Daredevil in the Mold
14. The Bikini in the Soup
15. The Killer in the Crosshairs
16. The Blackout in the Blizzard
17. The Feet on the Beach
18. The Truth in the Myth
19. The Finder
20. The Pinocchio in the Planter
21. The Signs in the Silence
22. The Hole in the Heart
23. The Change in the Game
-Как закачать отдельный файл из торрента или докачать ранее пропущенные файлы торрента!-

MI

General
Unique ID : 184352023791016311302261823189464475168 (0x8AB0E885DFAB341C819DBE754E556620)
Complete name : Z:\Bones.s06.rus.eng.720p.web-dl\Bones.s06e01.rus.eng.720p.web-dl.mkv
Format : Matroska
File size : 1.42 GiB
Duration : 45mn 30s
Overall bit rate : 4 468 Kbps
Encoded date : UTC 2011-08-08 13:44:09
Writing application : mkvmerge v4.5.0 ('Speed of Light') сборка от Feb 1 2011 02:10:32
Writing library : libebml v1.2.0 + libmatroska v1.1.0
Video
ID : 1
Format : AVC
Format/Info : Advanced Video Codec
Format profile : High@L3.1
Format settings, CABAC : No
Format settings, ReFrames : 2 frames
Codec ID : V_MPEG4/ISO/AVC
Duration : 45mn 30s
Bit rate : 3 803 Kbps
Width : 1 280 pixels
Height : 720 pixels
Display aspect ratio : 16:9
Frame rate : 23.976 fps
Color space : YUV
Chroma subsampling : 4:2:0
Bit depth : 8 bits
Scan type : Progressive
Bits/(Pixel*Frame) : 0.172
Stream size : 1.21 GiB (85%)
Language : English
Color primaries : BT.709-5, BT.1361, IEC 61966-2-4, SMPTE RP177
Transfer characteristics : BT.709-5, BT.1361
Matrix coefficients : BT.709-5, BT.1361, IEC 61966-2-4 709, SMPTE RP177
Audio #1
ID : 2
Format : AC-3
Format/Info : Audio Coding 3
Mode extension : CM (complete main)
Codec ID : A_AC3
Duration : 45mn 30s
Bit rate mode : Constant
Bit rate : 192 Kbps
Channel(s) : 2 channels
Channel positions : Front: L R
Sampling rate : 48.0 KHz
Bit depth : 16 bits
Compression mode : Lossy
Stream size : 62.5 MiB (4%)
Title : Профессиональный (полное дублирование) ТВ3
Language : Russian
Audio #2
ID : 3
Format : AC-3
Format/Info : Audio Coding 3
Mode extension : CM (complete main)
Codec ID : A_AC3
Duration : 45mn 30s
Bit rate mode : Constant
Bit rate : 384 Kbps
Channel(s) : 6 channels
Channel positions : Front: L C R, Side: L R, LFE
Sampling rate : 48.0 KHz
Bit depth : 16 bits
Compression mode : Lossy
Stream size : 125 MiB (9%)
Title : Оригинал
Language : English
-

Скриншоты

           

_________________

Создавая "Новую папку", не считайте себя Создателем - это право Вам дано Админом




Последний раз редактировалось: Varius (2011-09-17 19:48), всего редактировалось 25 раз(а)
Вне форума [Профиль] [ЛС]
Похожие темы
Форум Тема Автор Торрент Отв. Посл. сообщение
./templates/default/images/folder_dl.gif Фантастика, фэнтези, ужасы, мистика Константин Костин | Робинзоны космоса (2018) [FB2] }{@R0N
2 | 0

0 | 140

6

2018-07-09 21:42
}{@R0N Последнее
./templates/default/images/folder_dl.gif Фантастика, фэнтези, ужасы, мистика Константин Костин | Невидимое Солнце (2018) [FB2] }{@R0N
1 | 0

0 | 145

6

2018-07-09 21:43
}{@R0N Последнее
Показать сообщения:    
Ответить на тему

Текущее время: Сегодня 00:16

Часовой пояс: GMT + 3



Вы не можете начинать темы
Вы не можете отвечать на сообщения
Вы не можете редактировать свои сообщения
Вы не можете удалять свои сообщения
Вы не можете голосовать в опросах
Вы не можете прикреплять файлы к сообщениям
Вы не можете скачивать файлы