Сегодня идет свободное скачивание без начисления Download

Гриффины (Сезон 11, Серии: 1-17 из ??) / Family Guy (2012) HDTVRip [H.264/720p-LQ] [Обновляемая]

Ответить на тему
 
Автор
Сообщение

Omen ®

Стаж: 5 лет

Сообщений: 190530

Торрент-статистика

Пост 10-Июн-2013 17:05

[Цитировать]

Гриффины / Family Guy - Русское название: Гриффины
Оригинальное название: Family Guy
Год выпуска: 2012
Жанр: Комедия, Для взрослых
Описание:
"Гриффины" (Family Guy) - анимационное ТВ-Шоу, созданное Сетом МакФерлайном (Seth MacFarlane) для телеканала FOX. Как нетрудно догадаться, главными героями шоу является семейка Гриффинов: тупой, но полный сумашедших идей, составляющих львиную долю шуток сериала, отец семейства Питер; его любящя и терпеливая жена Лойс, всеми силами пытающаяся превратить Гриффинов в нормальную семью; их интеллектуально развитый не по годам, вынашивающий идею мирового господства младший сын Стьюи; дочь-ботаник, обречённая из-за этого на одиночество и непонимание как в школе так и дома, Мэг; и 13-ти летний отсталый в развитии лет на 10, сын Крис. Также полноценным членом семьи является пёс Брайн - склонный к меланхолии эстет, спокойно наблюдающий с бокалом вина в лапе над приключениями Питера и остальных членов семьи (и это при всём притом, что остальные собаки в сериале не являются очеловеченными)-Режиссер: Сет Макфарлейн
Персонажи: Питер, Лоис, Брайан, Мег, Крис, Стьюи Гриффины-Продолжительность: ~00:22:00
Перевод: Многоголосый закадровый [Filiza Studio]- -Озвучка студии:
Перевод на русский: livescore
Закадровые голоса: Света, darkFIL, Little, Nika Lenina, Say, Надежда Серганова, LocDog, Rise, Герман Шустов, Алексей Колисниченко (SunSay), Александр Чернов, JonEA, Uncle Michael, Ильяс Векилов, Трина Дубовицкая, Елена Фадеева + Дориана Грей, Лилиана Скрипко и Дмитрий Рыбин-Видеокодек: MPEG-4 AVC/H.264
Битрейт видео: ~2800 kbps
Размер кадра: 1280x720, 23,976 fps
Качество видео: HDTVRip 720p
Аудио [1]: AC3, 48Chz, 2 ch, 192 kbps [RUS, Filiza Studio]
Аудио [2]: AC3, 48Chz, 6 ch, 448 kbps [ENG, Оригинал]-Добавлена 17я серия! перекачайте торрент файл!
-              -

MediaInfo

D:\films\Family Guy Season 11 (2012) [HDTV 720p] [Filiza Studio]\Family.Guy.S11E01.720p.HDTV.X264.Filiza Studio.mkv
General
  • UniqueID : 243293164445777528869088975651384289486 (0xB7088F1F053EC00C8A1732A47FDF68CE)
  • Complete name : D:\films\Family Guy Season 11 (2012) [HDTV 720p] [Filiza Studio]\Family.Guy.S11E01.720p.HDTV.X264.Filiza Studio.mkv
  • Format : Matroska
  • File size : 434 MiB
  • Duration : 21mn 39s
  • Overall bit rate : 2 802 Kbps
  • Encoded date : UTC 2012-10-22 22:03:19
  • Writing application : mkvmerge v5.8.0 ('No Sleep / Pillow') built on Sep 2 2012 15:37:04
  • Writing library : libebml v1.2.3 + libmatroska v1.3.0
    Video #2
  • ID : 2
  • Format : AVC
  • Format/Info : Advanced Video Codec
  • Format profile : [url=mailto:High@L4.1]High@L4.1[/url]
  • Format settings, CABAC : Yes
  • Format settings, ReFrames : 9 frames
  • Format settings, GOP : M=6, N=32
  • Codec ID : V_MPEG4/ISO/AVC
  • Duration : 21mn 39s
  • Bit rate : 2 107 Kbps
  • Width : 1 280 pixels
  • Height : 720 pixels
  • Display aspect ratio : 16:9
  • Frame rate : 23.976 fps
  • Color space : YUV
  • Chroma subsampling : 4:2:0
  • Bit depth : 8 bits
  • Scan type : Progressive
  • Bits/(Pixel*Frame) : 0.095
  • Stream size : 326 MiB (75%)
  • Writing library : x264 core 128 r2216 198a7ea
  • Encoding settings : cabac=1 / ref=9 / deblock=1:2:2 / analyse=0x3:0x133 / me=umh / subme=10 / psy=1 / psy_rd=1.00:0.00 / mixed_ref=1 / me_range=28 / chroma_me=1 / trellis=2 / 8x8dct=1 / cqm=0 / deadzone=21,11 / fast_pskip=0 / chroma_qp_offset=-2 / threads=20 / lookahead_threads=3 / sliced_threads=0 / nr=0 / decimate=1 / interlaced=0 / bluray_compat=0 / constrained_intra=0 / bframes=5 / b_pyramid=2 / b_adapt=2 / b_bias=0 / direct=3 / weightb=1 / open_gop=0 / weightp=2 / keyint=250 / keyint_min=23 / scenecut=40 / intra_refresh=0 / rc_lookahead=60 / rc=crf / mbtree=1 / crf=18.0 / qcomp=0.60 / qpmin=0 / qpmax=69 / qpstep=4 / ip_ratio=1.40 / aq=1:1.00
  • Language : English
  • Matrix coefficients : BT.709-5, BT.1361, IEC 61966-2-4 709, SMPTE RP177
    Audio #1
  • ID : 1
  • Format : AC-3
  • Format/Info : Audio Coding 3
  • Mode extension : CM (complete main)
  • Codec ID : A_AC3
  • Duration : 21mn 39s
  • Bit rate mode : Constant
  • Bit rate : 192 Kbps
  • Channel(s) : 2 channels
  • Channel positions : Front: L R
  • Sampling rate : 48.0 KHz
  • Bit depth : 16 bits
  • Compression mode : Lossy
  • Video delay : 1s 500ms
  • Stream size : 29.7 MiB (7%)
  • Title : FiliZa Studio
  • Language : Russian
    Audio #3
  • ID : 3
  • Format : AC-3
  • Format/Info : Audio Coding 3
  • Mode extension : CM (complete main)
  • Codec ID : A_AC3
  • Duration : 21mn 39s
  • Bit rate mode : Constant
  • Bit rate : 448 Kbps
  • Channel(s) : 6 channels
  • Channel positions : Front: L C R, Side: L R, LFE
  • Sampling rate : 48.0 KHz
  • Bit depth : 16 bits
  • Compression mode : Lossy
  • Stream size : 69.4 MiB (16%)
  • Title : English
  • Language : English
    565171

Список серий

01. Into Fat Air
02. Ratings Guy
03. The Old Man and the Big 'C'
04. Yug Ylimaf
05. Joe's Revenge
06. Lois Comes Out of Her Shell
07. Friends Without Benefits
08. Jesus, Mary and Joseph!
09. Space Cadet
10. Brian's Play
11. The Giggity Wife
12. Valentine's Day in Quahog
13. Chris Cross
14. Call Girl
15. Turban Cowboy
16. 12 and a Half Angry Men
-
Вне форума [Профиль] [ЛС]
Показать сообщения:    
Ответить на тему

Текущее время: Сегодня 22:40

Часовой пояс: GMT + 3



Вы не можете начинать темы
Вы не можете отвечать на сообщения
Вы не можете редактировать свои сообщения
Вы не можете удалять свои сообщения
Вы не можете голосовать в опросах
Вы не можете прикреплять файлы к сообщениям
Вы не можете скачивать файлы