Today is a free download without charge Download

(Glam Rock) Ratt - Original Album Series (5CD Box Set) - 2013, APE (image+.cue), lossless

Reply to topic
 
Author
Message

Omen ®

Longevity: 7 years 3 months

Posts: 181087

Торрент-статистика

Post 10-Jun-2013 16:55

[Quote]

Ratt / Original Album Series (5CD Box Set)
Жанр: Glam Rock
Страна-производитель диска: Made In EU
Год издания: 2013
Издатель (лейбл): Rhino Records
Номер по каталогу: 8122-79680-3
Страна: USA
Аудиокодек: APE (*.ape)
Тип рипа: image+.cue
Битрейт аудио: lossless
Продолжительность: CD 1 - 37:19; CD 2 - 36:17; CD 3 - 35:04; CD 4 - 39:22; CD 5 - 42:10
Источник (релизер): собственный диск
Наличие сканов в содержимом раздачи: да

Треклист:

1984 - Out Of The Cellar:

01. Wanted Man02. You're In Trouble03. Round And Round04. In Your Direction05. She Wants Money06. Lack Of Communication07. Back For More08. The Morning After09. I’m Insane10. Scene Of The Crime

1985 - Invasion Of Your Privacy:

01. You're In Love02. Never Use Love03. Lay It Down04. Give It All05. Closer To My Heart06. Between The Eyes07. What You Give Is What You Get08. Got Me On The Line09. You Should Know By Now10. Dangerous But Worth The Risk

1986 - Dancing Undercover:

01. Dance02. One Good Lover03. Drive Me Crazy04. Slip Of The Lip05. Body Talk06. Looking For Love07. 7th Avenue08. It Doesn't Matter09. Take A Chance10. Enough Is Enough

1988 - Reach For The Sky:

01. City To City02. I Want A Woman03. Way Cool Jr.04. Don't Bite The Hand That Feeds You05. I Want To Love You Tonight06. Chain Reaction07. No Surprise08. Bottom Line09. What's It Gonna Be10. What I'm After

1990 - Detonator:

01. Intro To Shame02. Shame Shame Shame03. Lovin' You's A Dirty Job04. Scratch That Itch05. One Step Away06. Hard Time07. Heads I Win, Tails You Lose08. All Or Nothing09. Can't Wait On Love10. Giving Yourself Away11. Top Secret

Лог создания рипа

1984 - Out Of The Cellar:

Exact Audio Copy V0.99 prebeta 5 from 4. May 2009
Отчёт EAC об извлечении, выполненном 7. июня 2013, 18:35
Ratt / Out Of The Cellar
Дисковод: Optiarc DVD RW AD-5240S Adapter: 1 ID: 1
Режим чтения : ДостоверностьИспользование точного потока : ДаОтключение кэша аудио : ДаИспользование указателей C2 : Нет
Коррекция смещения при чтении : 48Способность читать области Lead-in и Lead-out : НетЗаполнение пропущенных сэмплов тишиной : ДаУдаление блоков с тишиной в начале и конце : НетПри вычислениях CRC использовались нулевые сэмплы : ДаИнтерфейс : Встроенный Win32-интерфейс для Win NT/2000
Выходной формат : Внутренние WAV-операцииФормат сэмплов : 44.100 Гц; 16 бит; стерео
TOC извлечённого CD
Трек | Старт | Длительность | Начальный сектор | Конечный сектор --------------------------------------------------------------------- 1 | 0:00.00 | 3:41.53 | 0 | 16627 2 | 3:41.53 | 3:20.70 | 16628 | 31697 3 | 7:02.48 | 4:25.67 | 31698 | 51639 4 | 11:28.40 | 3:31.70 | 51640 | 67534 5 | 15:00.35 | 3:06.35 | 67535 | 81519 6 | 18:06.70 | 3:54.28 | 81520 | 99097 7 | 22:01.23 | 3:47.05 | 99098 | 116127 8 | 25:48.28 | 3:34.52 | 116128 | 132229 9 | 29:23.05 | 2:56.20 | 132230 | 145449 10 | 32:19.25 | 4:59.40 | 145450 | 167914
Характеристики диапазона извлечения и сообщения об ошибках
Выбранный диапазон
Имя файла D:\Мои документы\Моя музыка\WAV\Ratt - Out Of The Cellar.wav
Пиковый уровень 92.2 % Качество диапазона 100.0 % CRC теста 90005D0A CRC копии 90005D0A Копирование... OK
Ошибок не произошло
AccurateRip: сводка
Трек 1 нет в базе данныхТрек 2 нет в базе данныхТрек 3 нет в базе данныхТрек 4 нет в базе данныхТрек 5 нет в базе данныхТрек 6 нет в базе данныхТрек 7 нет в базе данныхТрек 8 нет в базе данныхТрек 9 нет в базе данныхТрек 10 нет в базе данных
Ни одного трека нет в базе AccurateRip
Конец отчёта

1985 - Invasion Of Your Privacy:

Exact Audio Copy V0.99 prebeta 5 from 4. May 2009
Отчёт EAC об извлечении, выполненном 7. июня 2013, 19:00
Ratt / Invasion Of Your Privacy
Дисковод: Optiarc DVD RW AD-5240S Adapter: 1 ID: 1
Режим чтения : ДостоверностьИспользование точного потока : ДаОтключение кэша аудио : ДаИспользование указателей C2 : Нет
Коррекция смещения при чтении : 48Способность читать области Lead-in и Lead-out : НетЗаполнение пропущенных сэмплов тишиной : ДаУдаление блоков с тишиной в начале и конце : НетПри вычислениях CRC использовались нулевые сэмплы : ДаИнтерфейс : Встроенный Win32-интерфейс для Win NT/2000
Выходной формат : Внутренние WAV-операцииФормат сэмплов : 44.100 Гц; 16 бит; стерео
TOC извлечённого CD
Трек | Старт | Длительность | Начальный сектор | Конечный сектор --------------------------------------------------------------------- 1 | 0:00.00 | 3:14.08 | 0 | 14557 2 | 3:14.08 | 3:55.70 | 14558 | 32252 3 | 7:10.03 | 3:25.42 | 32253 | 47669 4 | 10:35.45 | 3:20.65 | 47670 | 62734 5 | 13:56.35 | 4:30.70 | 62735 | 83054 6 | 18:27.30 | 3:56.60 | 83055 | 100814 7 | 22:24.15 | 3:48.20 | 100815 | 117934 8 | 26:12.35 | 3:05.60 | 117935 | 131869 9 | 29:18.20 | 3:29.40 | 131870 | 147584 10 | 32:47.60 | 3:29.03 | 147585 | 163262
Характеристики диапазона извлечения и сообщения об ошибках
Выбранный диапазон
Имя файла D:\Мои документы\Моя музыка\WAV\Ratt - Invasion Of Your Privacy.wav
Пиковый уровень 89.1 % Качество диапазона 100.0 % CRC теста 1C5BF36D CRC копии 1C5BF36D Копирование... OK
Ошибок не произошло
AccurateRip: сводка
Трек 1 нет в базе данныхТрек 2 нет в базе данныхТрек 3 нет в базе данныхТрек 4 нет в базе данныхТрек 5 нет в базе данныхТрек 6 нет в базе данныхТрек 7 нет в базе данныхТрек 8 нет в базе данныхТрек 9 нет в базе данныхТрек 10 нет в базе данных
Ни одного трека нет в базе AccurateRip
Конец отчёта

1986 - Dancing Undercover:

Exact Audio Copy V0.99 prebeta 5 from 4. May 2009
Отчёт EAC об извлечении, выполненном 7. июня 2013, 19:38
Ratt / Dancing Undercover
Дисковод: Optiarc DVD RW AD-5240S Adapter: 1 ID: 1
Режим чтения : ДостоверностьИспользование точного потока : ДаОтключение кэша аудио : ДаИспользование указателей C2 : Нет
Коррекция смещения при чтении : 48Способность читать области Lead-in и Lead-out : НетЗаполнение пропущенных сэмплов тишиной : ДаУдаление блоков с тишиной в начале и конце : НетПри вычислениях CRC использовались нулевые сэмплы : ДаИнтерфейс : Встроенный Win32-интерфейс для Win NT/2000
Выходной формат : Внутренние WAV-операцииФормат сэмплов : 44.100 Гц; 16 бит; стерео
TOC извлечённого CD
Трек | Старт | Длительность | Начальный сектор | Конечный сектор --------------------------------------------------------------------- 1 | 0:00.00 | 4:20.23 | 0 | 19522 2 | 4:20.23 | 3:07.35 | 19523 | 33582 3 | 7:27.58 | 3:41.15 | 33583 | 50172 4 | 11:08.73 | 3:16.10 | 50173 | 64882 5 | 14:25.08 | 3:48.50 | 64883 | 82032 6 | 18:13.58 | 3:06.70 | 82033 | 96052 7 | 21:20.53 | 3:10.62 | 96053 | 110364 8 | 24:31.40 | 3:08.58 | 110365 | 124522 9 | 27:40.23 | 4:00.65 | 124523 | 142587 10 | 31:41.13 | 3:22.62 | 142588 | 157799
Характеристики диапазона извлечения и сообщения об ошибках
Выбранный диапазон
Имя файла D:\Мои документы\Моя музыка\WAV\Ratt - Dancing Undercover.wav
Пиковый уровень 100.0 % Качество диапазона 100.0 % CRC теста A92CF161 CRC копии A92CF161 Копирование... OK
Ошибок не произошло
AccurateRip: сводка
Трек 1 нет в базе данныхТрек 2 нет в базе данныхТрек 3 нет в базе данныхТрек 4 нет в базе данныхТрек 5 нет в базе данныхТрек 6 нет в базе данныхТрек 7 нет в базе данныхТрек 8 нет в базе данныхТрек 9 нет в базе данныхТрек 10 нет в базе данных
Ни одного трека нет в базе AccurateRip
Конец отчёта

1988 - Reach For The Sky:

Exact Audio Copy V0.99 prebeta 5 from 4. May 2009
Отчёт EAC об извлечении, выполненном 7. июня 2013, 20:02
Ratt / Reach For The Sky
Дисковод: Optiarc DVD RW AD-5240S Adapter: 1 ID: 1
Режим чтения : ДостоверностьИспользование точного потока : ДаОтключение кэша аудио : ДаИспользование указателей C2 : Нет
Коррекция смещения при чтении : 48Способность читать области Lead-in и Lead-out : НетЗаполнение пропущенных сэмплов тишиной : ДаУдаление блоков с тишиной в начале и конце : НетПри вычислениях CRC использовались нулевые сэмплы : ДаИнтерфейс : Встроенный Win32-интерфейс для Win NT/2000
Выходной формат : Внутренние WAV-операцииФормат сэмплов : 44.100 Гц; 16 бит; стерео
TOC извлечённого CD
Трек | Старт | Длительность | Начальный сектор | Конечный сектор --------------------------------------------------------------------- 1 | 0:00.00 | 3:31.15 | 0 | 15839 2 | 3:31.15 | 3:58.48 | 15840 | 33737 3 | 7:29.63 | 4:27.20 | 33738 | 53782 4 | 11:57.08 | 3:08.40 | 53783 | 67922 5 | 15:05.48 | 4:27.60 | 67923 | 88007 6 | 19:33.33 | 3:42.42 | 88008 | 104699 7 | 23:16.00 | 4:03.20 | 104700 | 122944 8 | 27:19.20 | 4:20.40 | 122945 | 142484 9 | 31:39.60 | 4:07.48 | 142485 | 161057 10 | 35:47.33 | 3:35.22 | 161058 | 177204
Характеристики диапазона извлечения и сообщения об ошибках
Выбранный диапазон
Имя файла D:\Мои документы\Моя музыка\WAV\Ratt - Reach For The Sky.wav
Пиковый уровень 100.0 % Качество диапазона 100.0 % CRC теста B478D606 CRC копии B478D606 Копирование... OK
Ошибок не произошло
AccurateRip: сводка
Трек 1 нет в базе данныхТрек 2 нет в базе данныхТрек 3 нет в базе данныхТрек 4 нет в базе данныхТрек 5 нет в базе данныхТрек 6 нет в базе данныхТрек 7 нет в базе данныхТрек 8 нет в базе данныхТрек 9 нет в базе данныхТрек 10 нет в базе данных
Ни одного трека нет в базе AccurateRip
Конец отчёта

1990 - Detonator:

Exact Audio Copy V0.99 prebeta 5 from 4. May 2009
Отчёт EAC об извлечении, выполненном 7. июня 2013, 20:26
Ratt / Detonator
Дисковод: Optiarc DVD RW AD-5240S Adapter: 1 ID: 1
Режим чтения : ДостоверностьИспользование точного потока : ДаОтключение кэша аудио : ДаИспользование указателей C2 : Нет
Коррекция смещения при чтении : 48Способность читать области Lead-in и Lead-out : НетЗаполнение пропущенных сэмплов тишиной : ДаУдаление блоков с тишиной в начале и конце : НетПри вычислениях CRC использовались нулевые сэмплы : ДаИнтерфейс : Встроенный Win32-интерфейс для Win NT/2000
Выходной формат : Внутренние WAV-операцииФормат сэмплов : 44.100 Гц; 16 бит; стерео
TOC извлечённого CD
Трек | Старт | Длительность | Начальный сектор | Конечный сектор --------------------------------------------------------------------- 1 | 0:00.00 | 0:55.38 | 0 | 4162 2 | 0:55.38 | 4:32.62 | 4163 | 24624 3 | 5:28.25 | 3:14.43 | 24625 | 39217 4 | 8:42.68 | 3:16.67 | 39218 | 53984 5 | 11:59.60 | 4:50.15 | 53985 | 75749 6 | 16:50.00 | 3:46.60 | 75750 | 92759 7 | 20:36.60 | 3:59.28 | 92760 | 110712 8 | 24:36.13 | 4:14.15 | 110713 | 129777 9 | 28:50.28 | 4:04.02 | 129778 | 148079 10 | 32:54.30 | 5:26.00 | 148080 | 172529 11 | 38:20.30 | 3:49.58 | 172530 | 189762
Характеристики диапазона извлечения и сообщения об ошибках
Выбранный диапазон
Имя файла D:\Мои документы\Моя музыка\WAV\Ratt - Detonator.wav
Пиковый уровень 100.0 % Качество диапазона 100.0 % CRC копии 2A723CF5 Копирование... OK
Ошибок не произошло
AccurateRip: сводка
Трек 1 точность не определена (достоверность 1) [D6CD17E9], AccurateRip вернул [0517056E]Трек 2 точность не определена (достоверность 1) [F5A5F382], AccurateRip вернул [15E4CD63]Трек 3 точность не определена (достоверность 1) [FD584F5F], AccurateRip вернул [737ECA27]Трек 4 точность не определена (достоверность 1) [8A97462A], AccurateRip вернул [DAE3934A]Трек 5 точность не определена (достоверность 1) [8F49AC76], AccurateRip вернул [09B4CE1C]Трек 6 точность не определена (достоверность 1) [6182CC9F], AccurateRip вернул [3132D06E]Трек 7 точность не определена (достоверность 1) [1293D0A8], AccurateRip вернул [2DDF5868]Трек 8 точность не определена (достоверность 1) [E0358CBB], AccurateRip вернул [DBC53C59]Трек 9 точность не определена (достоверность 1) [065CD2FB], AccurateRip вернул [98E4D2E5]Трек 10 точность не определена (достоверность 1) [D096F915], AccurateRip вернул [302A4A10]Трек 11 точность не определена (достоверность 1) [4B634F7A], AccurateRip вернул [BC4084D1]
Ни один трек не прошёл проверки на точностьВ вашей базе может быть иной вариант штамповки диска
Конец отчёта
Other forum [Profile] [PM]

Dracula

Longevity: 6 years 4 months

Posts: 11168

Торрент-статистика

Post 10-Jun-2013 19:15 (after 2 hours 19 minutes)

Топик был перенесен из форума Rock в форум Rock


p2000s
 

juicej

Longevity: 6 years

Posts: 5

Торрент-статистика

Post 07-Jul-2014 18:28 (after 1 year)

[Quote]

хотел скачать, да не получится((
Other forum [Profile] [PM]
Display posts from previous:    
Reply to topic

The time now is: Today 08:40

All times are GMT + 3 Hours



You cannot post new topics in this forum
You cannot reply to topics in this forum
You cannot edit your posts in this forum
You cannot delete your posts in this forum
You cannot vote in polls in this forum
You cannot attach files in this forum
You cannot download files in this forum