Today is a free download without charge Download

Jane Air - 9 Albums (2002-2010) [FLAC|Lossless]

Reply to topic
 
Author
Message

UndegraundMen ®

Longevity: 6 years 9 months

Posts: 25145

Торрент-статистика

Post 09-Jun-2013 04:15

[Quote]

Jane Air - 9 Albums (2002-2010) (10CD) - Год: 2002-2010
Жанр: Alternative
Продолжительность: 06:52:24
Источник (релизер): quasi
Наличие сканов в содержимом раздачи: Да
Кодек: FLAC, (image+.cue)
Битрейт: Lossless
Трек лист:

2002 - Pull ya? Let it doll go

Год издания дисков:
Издатель (лейбл): Капкан
Продолжительность: 00:59:00-Трек лист:
01 Intro (1:17)
02 Пуля (3:09)
03 Legalize (4:21)
04 Junk (feat.Smike) (3:28)
05 Вулканы (3:18)
06 Drugdealer (3:03)
07 Сваи (2:32)
08 08:00 утра (5:54)
09 Акт.Love (3:23)
10 С тобой (4:22)
11 Зимняя (2:50)
12 Суки (4:06)
13 Небоny (2:41)
14 Skit (1:33)
15 Никакой (полу-караоке версия) (2:49)
16 Самолёт (4:03)
17 SPBcore (3:39)
18 XXX (feat.Тёма/deadкеды) (2:22)
Бонус: видео на песню "Пуля"

Отчёт ЕАС:

Код:
Exact Audio Copy V0.99 prebeta 5 from 4. May 2009
EAC extraction logfile from 20. November 2010, 18:48
Jane Air / Pull ya? Let it doll go
Used drive  : _NEC    DVD_RW ND-3520A   Adapter: 0  ID: 1
Read mode               : Secure
Utilize accurate stream : Yes
Defeat audio cache      : Yes
Make use of C2 pointers : No
Read offset correction                      : 48
Overread into Lead-In and Lead-Out          : No
Fill up missing offset samples with silence : Yes
Delete leading and trailing silent blocks   : No
Null samples used in CRC calculations       : Yes
Used interface                              : Native Win32 interface for Win NT & 2000
Used output format              : User Defined Encoder
Selected bitrate                : 1024 kBit/s
Quality                         : High
Add ID3 tag                     : No
Command line compressor         : C:\Program Files\Exact Audio Copy\flac.exe
Additional command line options : -8 -V -T "ARTIST=%a" -T "TITLE=%t" -T "ALBUM=%g" -T "DATE=%y" -T "TRACKNUMBER=%n" -T "GENRE=%m" -T "COMMENT=EAC FLAC -8" %s
TOC of the extracted CD
     Track |   Start  |  Length  | Start sector | End sector
    ---------------------------------------------------------
        1  |  0:00.00 |  1:17.45 |         0    |     5819
        2  |  1:17.45 |  3:09.48 |      5820    |    20042
        3  |  4:27.18 |  4:21.39 |     20043    |    39656
        4  |  8:48.57 |  3:28.10 |     39657    |    55266
        5  | 12:16.67 |  3:18.74 |     55267    |    70190
        6  | 15:35.66 |  3:03.58 |     70191    |    83973
        7  | 18:39.49 |  2:32.56 |     83974    |    95429
        8  | 21:12.30 |  5:54.60 |     95430    |   122039
        9  | 27:07.15 |  3:23.57 |    122040    |   137321
       10  | 30:30.72 |  4:22.24 |    137322    |   156995
       11  | 34:53.21 |  2:50.70 |    156996    |   169815
       12  | 37:44.16 |  4:06.10 |    169816    |   188275
       13  | 41:50.26 |  2:41.11 |    188276    |   200361
       14  | 44:31.37 |  1:33.64 |    200362    |   207400
       15  | 46:05.26 |  2:49.53 |    207401    |   220128
       16  | 48:55.04 |  4:03.13 |    220129    |   238366
       17  | 52:58.17 |  3:39.38 |    238367    |   254829
       18  | 56:37.55 |  2:22.45 |    254830    |   265524
       19  | 61:32.25 |  3:49.63 |    276925    |   294162
Range status and errors
Selected range
     Filename D:\Jane Air\[2002] Pull ya  Let it doll go\Jane Air - Pull ya  Let it doll go.wav
     Peak level 95.9 %
     Range quality 100.0 %
     Test CRC 03F5AEBE
     Copy CRC 03F5AEBE
     Copy OK
No errors occurred
AccurateRip summary
Track  1  cannot be verified as accurate (confidence 1)  [60BF83B8], AccurateRip returned [6B8500C0]
Track  2  cannot be verified as accurate (confidence 1)  [58A1C6DE], AccurateRip returned [6627424E]
Track  3  cannot be verified as accurate (confidence 1)  [6F395B73], AccurateRip returned [87753B87]
Track  4  cannot be verified as accurate (confidence 1)  [4D6893DE], AccurateRip returned [CF0D5049]
Track  5  cannot be verified as accurate (confidence 1)  [B757AF1A], AccurateRip returned [8F9506C4]
Track  6  cannot be verified as accurate (confidence 1)  [58E19E96], AccurateRip returned [5C5FF980]
Track  7  cannot be verified as accurate (confidence 1)  [58D0EC36], AccurateRip returned [D2F6597E]
Track  8  cannot be verified as accurate (confidence 1)  [E6B32CDC], AccurateRip returned [DAAA1598]
Track  9  cannot be verified as accurate (confidence 1)  [20E8561B], AccurateRip returned [F98A647F]
Track 10  cannot be verified as accurate (confidence 1)  [081621CD], AccurateRip returned [AE81F7BF]
Track 11  cannot be verified as accurate (confidence 1)  [69B13610], AccurateRip returned [8BB53D23]
Track 12  cannot be verified as accurate (confidence 1)  [DCCC4075], AccurateRip returned [F3D68B99]
Track 13  cannot be verified as accurate (confidence 1)  [C4B73F55], AccurateRip returned [7B067499]
Track 14  not present in database
Track 15  cannot be verified as accurate (confidence 1)  [59616AAA], AccurateRip returned [822DE4F2]
Track 16  cannot be verified as accurate (confidence 1)  [1F14C9A3], AccurateRip returned [B91E1CD5]
Track 17  cannot be verified as accurate (confidence 1)  [1F9BC04A], AccurateRip returned [07A1DB8C]
Track 18  cannot be verified as accurate (confidence 1)  [32F712A3], AccurateRip returned [7B039FF7]
17 track(s) could not be verified as accurate
1 track(s) not present in the AccurateRip database
No tracks could be verified as accurate
You may have a different pressing from the one(s) in the database
End of status report

Отчёт auCDtect Task manager:

Код:
DON'T MODIFY THIS FILE
-----------------------
PERFORMER: auCDtect Task Manager, ver. 1.6.0 RC1 build 1.6.0.1
Copyright (c) 2008-2010 y-soft. All rights reserved
http://y-soft.org
ANALYZER: auCDtect: CD records authenticity detector, version 0.8.2
Copyright (c) 2004 Oleg Berngardt. All rights reserved.
Copyright (c) 2004 Alexander Djourik. All rights reserved.
FILE: Jane Air - Pull ya  Let it doll go.flac
  Size: 433917418 Hash: 5AE4C61A088C7C7BEC974D60EB516C5E Accuracy: -m0
  Conclusion: CDDA 99%
  Signature: 1B51164F5C3F48A7F85EE9E076976E5B486BA2FB

Данные видео/Скриншоты

Формат видео: MPEG
Видео: MPEG1 Video 352x288 (4:3) 25.00fps 1150Kbps [Video]
Аудио: MPEG Audio 44100Hz stereo 224Kbps [Audio]
   

2004 - Junk

Год издания дисков: 2004
Издатель (лейбл): Капкан
Продолжительность: 00:16:12-Трек лист:

01 Junk feat.Smike: album version (3:27)
02 Junk: video version (3:27)
03 Кровь и молоко (3:16)
04 Злое солнце: album version (4:13)
05 Обрывки: demo version (1:46)
Бонус: видео на песню "Junk" и фильм о создании видео

Отчёт ЕАС:

Код:
Exact Audio Copy V0.99 prebeta 5 from 4. May 2009
EAC extraction logfile from 20. November 2010, 19:01
Jane Air / Junk
Used drive  : _NEC    DVD_RW ND-3520A   Adapter: 0  ID: 1
Read mode               : Secure
Utilize accurate stream : Yes
Defeat audio cache      : Yes
Make use of C2 pointers : No
Read offset correction                      : 48
Overread into Lead-In and Lead-Out          : No
Fill up missing offset samples with silence : Yes
Delete leading and trailing silent blocks   : No
Null samples used in CRC calculations       : Yes
Used interface                              : Native Win32 interface for Win NT & 2000
Used output format              : User Defined Encoder
Selected bitrate                : 1024 kBit/s
Quality                         : High
Add ID3 tag                     : No
Command line compressor         : C:\Program Files\Exact Audio Copy\flac.exe
Additional command line options : -8 -V -T "ARTIST=%a" -T "TITLE=%t" -T "ALBUM=%g" -T "DATE=%y" -T "TRACKNUMBER=%n" -T "GENRE=%m" -T "COMMENT=EAC FLAC -8" %s
TOC of the extracted CD
     Track |   Start  |  Length  | Start sector | End sector
    ---------------------------------------------------------
        1  |  0:00.00 |  3:27.09 |         0    |    15533
        2  |  3:27.09 |  3:27.27 |     15534    |    31085
        3  |  6:54.36 |  3:16.73 |     31086    |    45858
        4  | 10:11.34 |  4:13.66 |     45859    |    64899
        5  | 14:25.25 |  1:46.27 |     64900    |    72876
        6  | 18:43.52 | 59:24.41 |     84277    |   351617
Range status and errors
Selected range
     Filename D:\Jane Air\[2004] Junk\Jane Air - Junk.wav
     Peak level 96.6 %
     Range quality 100.0 %
     Test CRC 004F4E6A
     Copy CRC 004F4E6A
     Copy OK
No errors occurred
AccurateRip summary
Track  1  not present in database
Track  2  not present in database
Track  3  not present in database
Track  4  not present in database
Track  5  not present in database
None of the tracks are present in the AccurateRip database
End of status report

Отчёт auCDtect Task manager:

Код:
DON'T MODIFY THIS FILE
-----------------------
PERFORMER: auCDtect Task Manager, ver. 1.6.0 RC1 build 1.6.0.1
Copyright (c) 2008-2010 y-soft. All rights reserved
http://y-soft.org
ANALYZER: auCDtect: CD records authenticity detector, version 0.8.2
Copyright (c) 2004 Oleg Berngardt. All rights reserved.
Copyright (c) 2004 Alexander Djourik. All rights reserved.
FILE: Jane Air - Junk.flac
  Size: 117484894 Hash: 360BE9640C671A9C37A679E46016E19E Accuracy: -m0
  Conclusion: CDDA 100%
  Signature: 9EE5C5D30A719BCFB43255F92CDCAA2AF4474FF3

Данные видео/Скриншоты

Формат видео: MPEG
Видео: MPEG1 Video 352x288 (4:3) 25.00fps 1126Kbps [Video]
Аудио: MPEG Audio 44100Hz stereo 224Kbps [Audio]
   

2004 - Jane Air

Год издания дисков: 2003
Издатель (лейбл): Капкан
Продолжительность: 00:42:54-Трек лист:

01 С добрым утром (3:26)
02 Первый (3:08)
03 Лето в ожидании войны (4:45)
04 2004Год (2:51)
05 Париж (1:51)
06 Неон и кислота (4:23)
07 Напалм. Забери меня домой (3:11)
08 Взлетая выше звёзд (4:39)
09 72305Я (3:25)
10 Цифровое реле (4:04)
11 Злое солнце (4:11)
12 Hello (2:55)

Отчёт ЕАС:

Код:
Exact Audio Copy V0.99 prebeta 5 from 4. May 2009
EAC extraction logfile from 20. November 2010, 19:37
Jane Air / Jane Air
Used drive  : _NEC    DVD_RW ND-3520A   Adapter: 0  ID: 1
Read mode               : Secure
Utilize accurate stream : Yes
Defeat audio cache      : Yes
Make use of C2 pointers : No
Read offset correction                      : 48
Overread into Lead-In and Lead-Out          : No
Fill up missing offset samples with silence : Yes
Delete leading and trailing silent blocks   : No
Null samples used in CRC calculations       : Yes
Used interface                              : Native Win32 interface for Win NT & 2000
Used output format              : User Defined Encoder
Selected bitrate                : 1024 kBit/s
Quality                         : High
Add ID3 tag                     : No
Command line compressor         : C:\Program Files\Exact Audio Copy\flac.exe
Additional command line options : -8 -V -T "ARTIST=%a" -T "TITLE=%t" -T "ALBUM=%g" -T "DATE=%y" -T "TRACKNUMBER=%n" -T "GENRE=%m" -T "COMMENT=EAC FLAC -8" %s
TOC of the extracted CD
     Track |   Start  |  Length  | Start sector | End sector
    ---------------------------------------------------------
        1  |  0:00.00 |  3:26.23 |         0    |    15472
        2  |  3:26.23 |  3:08.62 |     15473    |    29634
        3  |  6:35.10 |  4:45.34 |     29635    |    51043
        4  | 11:20.44 |  2:51.45 |     51044    |    63913
        5  | 14:12.14 |  1:51.24 |     63914    |    72262
        6  | 16:03.38 |  4:23.09 |     72263    |    91996
        7  | 20:26.47 |  3:11.03 |     91997    |   106324
        8  | 23:37.50 |  4:39.18 |    106325    |   127267
        9  | 28:16.68 |  3:25.60 |    127268    |   142702
       10  | 31:42.53 |  4:04.19 |    142703    |   161021
       11  | 35:46.72 |  4:11.68 |    161022    |   179914
       12  | 39:58.65 |  2:55.11 |    179915    |   193050
Range status and errors
Selected range
     Filename D:\Jane Air\[2004] Jane Air\Jane Air - Jane Air.wav
     Peak level 99.9 %
     Range quality 99.8 %
     Test CRC CB7E5C2A
     Copy CRC CB7E5C2A
     Copy OK
No errors occurred
AccurateRip summary
Track  1  not present in database
Track  2  not present in database
Track  3  not present in database
Track  4  not present in database
Track  5  not present in database
Track  6  not present in database
Track  7  not present in database
Track  8  not present in database
Track  9  not present in database
Track 10  not present in database
Track 11  not present in database
Track 12  not present in database
None of the tracks are present in the AccurateRip database
End of status report

Отчёт auCDtect Task manager:

Код:
DON'T MODIFY THIS FILE
-----------------------
PERFORMER: auCDtect Task Manager, ver. 1.6.0 RC1 build 1.6.0.1
Copyright (c) 2008-2010 y-soft. All rights reserved
http://y-soft.org
ANALYZER: auCDtect: CD records authenticity detector, version 0.8.2
Copyright (c) 2004 Oleg Berngardt. All rights reserved.
Copyright (c) 2004 Alexander Djourik. All rights reserved.
FILE: Jane Air - Jane Air.flac
  Size: 324609693 Hash: C6483CC79013D10F6DA099B59FBFF680 Accuracy: -m0
  Conclusion: CDDA 100%
  Signature: E299F0B6B64986F0C9F110026C9F87FD18E0C716

2005 - Стекла стекла

Год издания дисков: 2005
Издатель (лейбл): Капкан
Продолжительность: 00:18:41-Трек лист:

01 Стекла стекла (3:30)
02 Лето в ожидании войны (live) (4:26)
03 Первый (live) (3:22)
04 С тобой (live) (4:14)
05 Я (live) (3:06)

Отчёт ЕАС:

Код:
Exact Audio Copy V0.99 prebeta 5 from 4. May 2009
EAC extraction logfile from 20. November 2010, 19:50
Jane Air / Стекла стекла
Used drive  : _NEC    DVD_RW ND-3520A   Adapter: 0  ID: 1
Read mode               : Secure
Utilize accurate stream : Yes
Defeat audio cache      : Yes
Make use of C2 pointers : No
Read offset correction                      : 48
Overread into Lead-In and Lead-Out          : No
Fill up missing offset samples with silence : Yes
Delete leading and trailing silent blocks   : No
Null samples used in CRC calculations       : Yes
Used interface                              : Native Win32 interface for Win NT & 2000
Used output format              : User Defined Encoder
Selected bitrate                : 1024 kBit/s
Quality                         : High
Add ID3 tag                     : No
Command line compressor         : C:\Program Files\Exact Audio Copy\flac.exe
Additional command line options : -8 -V -T "ARTIST=%a" -T "TITLE=%t" -T "ALBUM=%g" -T "DATE=%y" -T "TRACKNUMBER=%n" -T "GENRE=%m" -T "COMMENT=EAC FLAC -8" %s
TOC of the extracted CD
     Track |   Start  |  Length  | Start sector | End sector
    ---------------------------------------------------------
        1  |  0:00.00 |  3:30.53 |         0    |    15802
        2  |  3:30.53 |  4:26.73 |     15803    |    35825
        3  |  7:57.51 |  3:22.60 |     35826    |    51035
        4  | 11:20.36 |  4:14.63 |     51036    |    70148
        5  | 15:35.24 |  3:06.00 |     70149    |    84098
        6  | 21:13.24 |  6:44.41 |     95499    |   125839
Range status and errors
Selected range
     Filename D:\Jane Air\[2005] Стекла стекла\Jane Air - Стекла стекла.wav
     Peak level 100.0 %
     Range quality 100.0 %
     Test CRC 6A0021F5
     Copy CRC 6A0021F5
     Copy OK
No errors occurred
AccurateRip summary
Track  1  not present in database
Track  2  not present in database
Track  3  not present in database
Track  4  not present in database
Track  5  not present in database
None of the tracks are present in the AccurateRip database
End of status report

Отчёт auCDtect Task manager:

Код:
DON'T MODIFY THIS FILE
-----------------------
PERFORMER: auCDtect Task Manager, ver. 1.6.0 RC1 build 1.6.0.1
Copyright (c) 2008-2010 y-soft. All rights reserved
http://y-soft.org
ANALYZER: auCDtect: CD records authenticity detector, version 0.8.2
Copyright (c) 2004 Oleg Berngardt. All rights reserved.
Copyright (c) 2004 Alexander Djourik. All rights reserved.
FILE: Jane Air - Стекла стекла.flac
  Size: 145871957 Hash: 7FEF818EDD6FC50F04D4B84B358CDFB0 Accuracy: -m0
  Conclusion: CDDA 100%
  Signature: 6F34CE8E7A5C933A3970642BF1295860F9493C99

2005 - Jane Air: Live

Год издания дисков: 2005
Издатель (лейбл): Капкан
Продолжительность: 01:02:40-Трек лист:

01 Цифровое реле (Live 2005) (4:18)
02 2004Год (Live 2005) (2:44)
03 Самолёт (Live 2005) (3:31)
04 Кровь и молоко (Live 2005) (3:18)
05 Пуля (Live 2005) (3:05)
06 Обрывки (Live 2005) (1:47)
07 Лето в ожидании войны (Live 2005) (4:44)
08 Сваи (Live 2005) (1:50)
09 Стёкла стекла (Live 2005) (3:34)
10 Неон и кислота (Live 2005) (5:10)
11 Первый (Live 2005) (3:32)
12 XXX (Live 2005) (7:14)
13 Зимняя (Live 2005) (3:30)
14 С тобой (Live 2005) (4:29)
15 72305Я (Live 2005) (2:58)
16 Junk (Live 2005) (3:36)
17 Париж (Live 2005) (3:11)

Отчёт ЕАС:

Код:
Exact Audio Copy V0.99 prebeta 5 from 4. May 2009
EAC extraction logfile from 20. November 2010, 20:25
Jane Air / Jane Air: Live
Used drive  : _NEC    DVD_RW ND-3520A   Adapter: 0  ID: 1
Read mode               : Secure
Utilize accurate stream : Yes
Defeat audio cache      : Yes
Make use of C2 pointers : No
Read offset correction                      : 48
Overread into Lead-In and Lead-Out          : No
Fill up missing offset samples with silence : Yes
Delete leading and trailing silent blocks   : No
Null samples used in CRC calculations       : Yes
Used interface                              : Native Win32 interface for Win NT & 2000
Used output format              : User Defined Encoder
Selected bitrate                : 1024 kBit/s
Quality                         : High
Add ID3 tag                     : No
Command line compressor         : C:\Program Files\Exact Audio Copy\flac.exe
Additional command line options : -8 -V -T "ARTIST=%a" -T "TITLE=%t" -T "ALBUM=%g" -T "DATE=%y" -T "TRACKNUMBER=%n" -T "GENRE=%m" -T "COMMENT=EAC FLAC -8" %s
TOC of the extracted CD
     Track |   Start  |  Length  | Start sector | End sector
    ---------------------------------------------------------
        1  |  0:00.00 |  4:18.53 |         0    |    19402
        2  |  4:18.53 |  2:44.08 |     19403    |    31710
        3  |  7:02.61 |  3:31.12 |     31711    |    47547
        4  | 10:33.73 |  3:18.45 |     47548    |    62442
        5  | 13:52.43 |  3:05.51 |     62443    |    76368
        6  | 16:58.19 |  1:47.25 |     76369    |    84418
        7  | 18:45.44 |  4:44.49 |     84419    |   105767
        8  | 23:30.18 |  1:50.40 |    105768    |   114057
        9  | 25:20.58 |  3:34.14 |    114058    |   130121
       10  | 28:54.72 |  5:10.63 |    130122    |   153434
       11  | 34:05.60 |  3:32.41 |    153435    |   169375
       12  | 37:38.26 |  7:14.11 |    169376    |   201936
       13  | 44:52.37 |  3:30.73 |    201937    |   217759
       14  | 48:23.35 |  4:29.15 |    217760    |   237949
       15  | 52:52.50 |  2:58.57 |    237950    |   251356
       16  | 55:51.32 |  3:36.52 |    251357    |   267608
       17  | 59:28.09 |  3:11.41 |    267609    |   281974
Range status and errors
Selected range
     Filename D:\Jane Air\[2005] Jane Air  Live\Jane Air - Jane Air  Live.wav
     Peak level 98.5 %
     Range quality 99.9 %
     Test CRC C802624D
     Copy CRC C802624D
     Copy OK
No errors occurred
AccurateRip summary
Track  1  not present in database
Track  2  not present in database
Track  3  not present in database
Track  4  not present in database
Track  5  not present in database
Track  6  not present in database
Track  7  not present in database
Track  8  not present in database
Track  9  not present in database
Track 10  not present in database
Track 11  not present in database
Track 12  not present in database
Track 13  not present in database
Track 14  not present in database
Track 15  not present in database
Track 16  not present in database
Track 17  not present in database
None of the tracks are present in the AccurateRip database
End of status report

Отчёт auCDtect Task manager:

Код:
DON'T MODIFY THIS FILE
-----------------------
PERFORMER: auCDtect Task Manager, ver. 1.6.0 RC1 build 1.6.0.1
Copyright (c) 2008-2010 y-soft. All rights reserved
http://y-soft.org
ANALYZER: auCDtect: CD records authenticity detector, version 0.8.2
Copyright (c) 2004 Oleg Berngardt. All rights reserved.
Copyright (c) 2004 Alexander Djourik. All rights reserved.
FILE: Jane Air - Jane Air  Live.flac
  Size: 510077522 Hash: 6D5A668487E2F41B28431217C7BA7D17 Accuracy: -m0
  Conclusion: CDDA 99%
  Signature: B11DC5E36DCFAA03430331386E39B6DD0EDB266D

2006 - Jane Air (Remixed & Remastered)

Год издания дисков: 2006
Издатель (лейбл): Капкан
Продолжительность: 00:42:53-Трек лист:

01 С добрым утром (Remixed & Remastered) (3:25)
02 Первый (Remixed & Remastered) (3:09)
03 Лето в ожидании войны (Remixed & Remastered) (4:46)
04 2004Год (Remixed & Remastered) (2:51)
05 Париж (Remixed & Remastered) (1:52)
06 Неон и кислота (Remixed & Remastered) (4:24)
07 Напалм. Забери меня домой (Remixed & Remastered) (3:00)
08 Взлетая выше звёзд (Remixed & Remastered) (4:38)
09 72305Я (Remixed & Remastered) (3:26)
10 Цифровое реле (Remixed & Remastered) (4:04)
11 Злое солнце (Remixed & Remastered) (4:12)
12 Hello (Remixed & Remastered) (3:00)
Бонус: видео на песню "Париж"

Отчёт ЕАС:

Код:
Exact Audio Copy V0.99 prebeta 5 from 4. May 2009
EAC extraction logfile from 20. November 2010, 21:00
Jane Air / Jane Air (Remixed & Remastered)
Used drive  : _NEC    DVD_RW ND-3520A   Adapter: 0  ID: 1
Read mode               : Secure
Utilize accurate stream : Yes
Defeat audio cache      : Yes
Make use of C2 pointers : No
Read offset correction                      : 48
Overread into Lead-In and Lead-Out          : No
Fill up missing offset samples with silence : Yes
Delete leading and trailing silent blocks   : No
Null samples used in CRC calculations       : Yes
Used interface                              : Native Win32 interface for Win NT & 2000
Used output format              : User Defined Encoder
Selected bitrate                : 1024 kBit/s
Quality                         : High
Add ID3 tag                     : No
Command line compressor         : C:\Program Files\Exact Audio Copy\flac.exe
Additional command line options : -8 -V -T "ARTIST=%a" -T "TITLE=%t" -T "ALBUM=%g" -T "DATE=%y" -T "TRACKNUMBER=%n" -T "GENRE=%m" -T "COMMENT=EAC FLAC -8" %s
TOC of the extracted CD
     Track |   Start  |  Length  | Start sector | End sector
    ---------------------------------------------------------
        1  |  0:00.00 |  3:25.51 |         0    |    15425
        2  |  3:25.51 |  3:09.58 |     15426    |    29658
        3  |  6:35.34 |  4:46.42 |     29659    |    51150
        4  | 11:22.01 |  2:51.53 |     51151    |    64028
        5  | 14:13.54 |  1:52.01 |     64029    |    72429
        6  | 16:05.55 |  4:24.02 |     72430    |    92231
        7  | 20:29.57 |  3:00.12 |     92232    |   105743
        8  | 23:29.69 |  4:38.62 |    105744    |   126655
        9  | 28:08.56 |  3:26.61 |    126656    |   142166
       10  | 31:35.42 |  4:04.57 |    142167    |   160523
       11  | 35:40.24 |  4:12.09 |    160524    |   179432
       12  | 39:52.33 |  3:00.39 |    179433    |   192971
       13  | 45:24.72 | 10:07.20 |    204372    |   249916
Range status and errors
Selected range
     Filename D:\Jane Air\[2006] Jane Air (Remixed & Remastered)\Jane Air - Jane Air (Remixed & Remastered).wav
     Peak level 100.0 %
     Range quality 100.0 %
     Test CRC 4EC24478
     Copy CRC 4EC24478
     Copy OK
No errors occurred
AccurateRip summary
Track  1  accurately ripped (confidence 3)  [D12380C9]
Track  2  accurately ripped (confidence 3)  [72E49AA8]
Track  3  accurately ripped (confidence 3)  [2C31E4BD]
Track  4  accurately ripped (confidence 3)  [E54755F6]
Track  5  accurately ripped (confidence 3)  [CD0BDA25]
Track  6  accurately ripped (confidence 3)  [200EBD45]
Track  7  accurately ripped (confidence 3)  [F79FED9C]
Track  8  accurately ripped (confidence 3)  [F486C0DB]
Track  9  accurately ripped (confidence 3)  [82D749D1]
Track 10  accurately ripped (confidence 3)  [E2F72254]
Track 11  accurately ripped (confidence 3)  [11C462D4]
Track 12  accurately ripped (confidence 3)  [C3EB6E44]
All tracks accurately ripped
End of status report

Отчёт auCDtect Task manager:

Код:
DON'T MODIFY THIS FILE
-----------------------
PERFORMER: auCDtect Task Manager, ver. 1.6.0 RC1 build 1.6.0.1
Copyright (c) 2008-2010 y-soft. All rights reserved
http://y-soft.org
ANALYZER: auCDtect: CD records authenticity detector, version 0.8.2
Copyright (c) 2004 Oleg Berngardt. All rights reserved.
Copyright (c) 2004 Alexander Djourik. All rights reserved.
FILE: Jane Air - Jane Air (Remixed & Remastered).flac
  Size: 325079015 Hash: E7A3E089DFA67CA7E6743D2F92BE1F68 Accuracy: -m0
  Conclusion: CDDA 100%
  Signature: DA816EA652D5F4ED7BA225ABE6DB67A46AA21AC3

Данные видео/Скриншоты

Формат видео: MPEG
Видео: MPEG1 Video 720x576 (131:96) 25.00fps 4662Kbps [Video]
Аудио: MPEG Audio 48000Hz stereo 224Kbps [Audio]
   

2006 - Pere-Lachaise

Год издания дисков: 2006
Издатель (лейбл): Капкан
Продолжительность: 00:44:59-Трек лист:

01 Pere-Lachaise (3:26)
02 Волчата (4:06)
03 Intro (0:36)
04 Мессалина (3:49)
05 Любовь и немного смерти (3:04)
06 Суперзвезда (2:28)
07 9,80665 (2:13)
08 * (0:48)
09 Джейн в эфире (2:51)
10 Lullaby (3:11)
11 Последний бал feat. ed-win (3:01)
12 Это любовь (15:22)
Бонус: видео на песню "Pere-Lachaise"

Отчёт ЕАС:

Код:
Exact Audio Copy V0.99 prebeta 5 from 4. May 2009
EAC extraction logfile from 20. November 2010, 21:51
Jane Air / Pere-Lachaise
Used drive  : _NEC    DVD_RW ND-3520A   Adapter: 0  ID: 1
Read mode               : Secure
Utilize accurate stream : Yes
Defeat audio cache      : Yes
Make use of C2 pointers : No
Read offset correction                      : 48
Overread into Lead-In and Lead-Out          : No
Fill up missing offset samples with silence : Yes
Delete leading and trailing silent blocks   : No
Null samples used in CRC calculations       : Yes
Used interface                              : Native Win32 interface for Win NT & 2000
Used output format              : User Defined Encoder
Selected bitrate                : 1024 kBit/s
Quality                         : High
Add ID3 tag                     : No
Command line compressor         : C:\Program Files\Exact Audio Copy\flac.exe
Additional command line options : -8 -V -T "ARTIST=%a" -T "TITLE=%t" -T "ALBUM=%g" -T "DATE=%y" -T "TRACKNUMBER=%n" -T "GENRE=%m" -T "COMMENT=EAC FLAC -8" %s
TOC of the extracted CD
     Track |   Start  |  Length  | Start sector | End sector
    ---------------------------------------------------------
        1  |  0:00.00 |  3:26.21 |         0    |    15470
        2  |  3:26.21 |  4:06.06 |     15471    |    33926
        3  |  7:32.27 |  0:36.16 |     33927    |    36642
        4  |  8:08.43 |  3:49.12 |     36643    |    53829
        5  | 11:57.55 |  3:04.15 |     53830    |    67644
        6  | 15:01.70 |  2:28.21 |     67645    |    78765
        7  | 17:30.16 |  2:13.61 |     78766    |    88801
        8  | 19:44.02 |  0:48.22 |     88802    |    92423
        9  | 20:32.24 |  2:51.70 |     92424    |   105318
       10  | 23:24.19 |  3:11.26 |    105319    |   119669
       11  | 26:35.45 |  3:01.00 |    119670    |   133244
       12  | 29:36.45 | 15:22.50 |    133245    |   202444
       13  | 47:31.20 | 21:42.01 |    213845    |   311495
Range status and errors
Selected range
     Filename D:\Jane Air\[2006] Pere-Lachaise\Jane Air - Pere-Lachaise.wav
     Peak level 100.0 %
     Range quality 100.0 %
     Test CRC D885ABC2
     Copy CRC D885ABC2
     Copy OK
No errors occurred
AccurateRip summary
Track  1  not present in database
Track  2  not present in database
Track  3  not present in database
Track  4  not present in database
Track  5  not present in database
Track  6  not present in database
Track  7  not present in database
Track  8  not present in database
Track  9  not present in database
Track 10  not present in database
Track 11  not present in database
Track 12  not present in database
None of the tracks are present in the AccurateRip database
End of status report

Отчёт auCDtect Task manager:

Код:
DON'T MODIFY THIS FILE
-----------------------
PERFORMER: auCDtect Task Manager, ver. 1.6.0 RC1 build 1.6.0.1
Copyright (c) 2008-2010 y-soft. All rights reserved
http://y-soft.org
ANALYZER: auCDtect: CD records authenticity detector, version 0.8.2
Copyright (c) 2004 Oleg Berngardt. All rights reserved.
Copyright (c) 2004 Alexander Djourik. All rights reserved.
FILE: Jane Air - Pere-Lachaise.flac
  Size: 288125380 Hash: 4D7F04CA44BCFDF96C1EFDCD9520613F Accuracy: -m0
  Conclusion: CDDA 100%
  Signature: B7076DA423050C7A091DA91A8F0F6F84D20E24EC

Данные видео/Скриншоты

Формат видео: MPEG
Видео: MPEG2 Video 720x576 (4:3) 25.00fps 6000Kbps [Video]
Аудио: MPEG Audio 48000Hz stereo 224Kbps [Mpeg-1]
   

2007 - Новый год одна

Год издания дисков: 2007
Издатель (лейбл): A-ONE Records
Номер по каталогу: AOR 035/07
Продолжительность: 00:06:02-Трек лист:

01 Новый год одна (3:33)
02 Новогоднее поздравление группы Jane Air (2:28)
Бонус: видео на песню "Новый год одна"

Отчёт ЕАС:

Код:
Exact Audio Copy V0.99 prebeta 5 from 4. May 2009
EAC extraction logfile from 20. November 2010, 22:16
Jane Air / Новый год одна
Used drive  : _NEC    DVD_RW ND-3520A   Adapter: 0  ID: 1
Read mode               : Secure
Utilize accurate stream : Yes
Defeat audio cache      : Yes
Make use of C2 pointers : No
Read offset correction                      : 48
Overread into Lead-In and Lead-Out          : No
Fill up missing offset samples with silence : Yes
Delete leading and trailing silent blocks   : No
Null samples used in CRC calculations       : Yes
Used interface                              : Native Win32 interface for Win NT & 2000
Used output format              : User Defined Encoder
Selected bitrate                : 1024 kBit/s
Quality                         : High
Add ID3 tag                     : No
Command line compressor         : C:\Program Files\Exact Audio Copy\flac.exe
Additional command line options : -8 -V -T "ARTIST=%a" -T "TITLE=%t" -T "ALBUM=%g" -T "DATE=%y" -T "TRACKNUMBER=%n" -T "GENRE=%m" -T "COMMENT=EAC FLAC -8" %s
TOC of the extracted CD
     Track |   Start  |  Length  | Start sector | End sector
    ---------------------------------------------------------
        1  |  0:00.00 |  3:33.67 |         0    |    16041
        2  |  3:33.67 |  2:28.44 |     16042    |    27185
        3  |  8:34.36 | 11:51.45 |     38586    |    91955
Range status and errors
Selected range
     Filename D:\Jane Air\[2007] Новый год одна\Jane Air - Новый год одна.wav
     Peak level 98.8 %
     Range quality 100.0 %
     Test CRC FB2545EB
     Copy CRC FB2545EB
     Copy OK
No errors occurred
AccurateRip summary
Track  1  not present in database
Track  2  not present in database
None of the tracks are present in the AccurateRip database
End of status report

Отчёт auCDtect Task manager:

Код:
DON'T MODIFY THIS FILE
-----------------------
PERFORMER: auCDtect Task Manager, ver. 1.6.0 RC1 build 1.6.0.1
Copyright (c) 2008-2010 y-soft. All rights reserved
http://y-soft.org
ANALYZER: auCDtect: CD records authenticity detector, version 0.8.2
Copyright (c) 2004 Oleg Berngardt. All rights reserved.
Copyright (c) 2004 Alexander Djourik. All rights reserved.
FILE: Jane Air - Новый год одна.flac
  Size: 36184631 Hash: E72CB58D5E481050E6C7B6073F105819 Accuracy: -m0
  Conclusion: CDDA 100%
  Signature: 0238DDD4B71B72EA336D14B9CF6F96B63BF05F0E

Данные видео/Скриншоты

Формат видео:AVI
Видео: XVID 720x576 25.00fps 1398Kbps [Video 0]
Аудио: PCM 44100Hz stereo 1411Kbps [Audio 1]
   

2010 - Weekend Warriors (2CD)

Год издания дисков: 2010
Издатель (лейбл): СОЮЗ
Номер по каталогу: SZCD 7090-10
Продолжительность: 01:33:23-

CD 1

Продолжительность: 00:43:07
Трек лист:

01 introduction (2:23)
02 Radio SAINT-P (Голова Жанны Фриске) (3:18)
03 Таблетки которые вылечат нас (4:12)
04 Can-Can (4:18)
05 Weekend Warriors ft. Dj Jahmini (4:39)
06 Бог уснул за рулём (2:46)
07 На твой ROCK'n'ROLL (4:59)
08 Апокалипсис уже за тобой (5:57)
09 Джульетта (4:07)
10 Sex and Violence tour (Не надо просыпаться) (6:22)

Отчёт ЕАС:

Код:
Exact Audio Copy V0.99 prebeta 5 from 4. May 2009
EAC extraction logfile from 20. November 2010, 22:44
Jane Air / Weekend Warriors: Part one
Used drive  : _NEC    DVD_RW ND-3520A   Adapter: 0  ID: 1
Read mode               : Secure
Utilize accurate stream : Yes
Defeat audio cache      : Yes
Make use of C2 pointers : No
Read offset correction                      : 48
Overread into Lead-In and Lead-Out          : No
Fill up missing offset samples with silence : Yes
Delete leading and trailing silent blocks   : No
Null samples used in CRC calculations       : Yes
Used interface                              : Native Win32 interface for Win NT & 2000
Used output format              : User Defined Encoder
Selected bitrate                : 1024 kBit/s
Quality                         : High
Add ID3 tag                     : No
Command line compressor         : C:\Program Files\Exact Audio Copy\flac.exe
Additional command line options : -8 -V -T "ARTIST=%a" -T "TITLE=%t" -T "ALBUM=%g" -T "DATE=%y" -T "TRACKNUMBER=%n" -T "GENRE=%m" -T "COMMENT=EAC FLAC -8" %s
TOC of the extracted CD
     Track |   Start  |  Length  | Start sector | End sector
    ---------------------------------------------------------
        1  |  0:00.00 |  2:23.54 |         0    |    10778
        2  |  2:23.54 |  3:18.26 |     10779    |    25654
        3  |  5:42.05 |  4:12.12 |     25655    |    44566
        4  |  9:54.17 |  4:18.12 |     44567    |    63928
        5  | 14:12.29 |  4:39.16 |     63929    |    84869
        6  | 18:51.45 |  2:46.54 |     84870    |    97373
        7  | 21:38.24 |  4:59.71 |     97374    |   119869
        8  | 26:38.20 |  5:57.69 |    119870    |   146713
        9  | 32:36.14 |  4:07.72 |    146714    |   165310
       10  | 36:44.11 |  6:22.34 |    165311    |   193994
Range status and errors
Selected range
     Filename D:\Jane Air\[2010] Weekend Warriors\CD1\Jane Air - Weekend Warriors  Part one.wav
     Peak level 100.0 %
     Range quality 100.0 %
     Test CRC EB7761A9
     Copy CRC EB7761A9
     Copy OK
No errors occurred
AccurateRip summary
Track  1  not present in database
Track  2  not present in database
Track  3  not present in database
Track  4  not present in database
Track  5  not present in database
Track  6  not present in database
Track  7  not present in database
Track  8  not present in database
Track  9  not present in database
Track 10  not present in database
None of the tracks are present in the AccurateRip database
End of status report

CD 2

Продолжительность: 00:50:16
Трек лист:

01 Замедляя ускоряя ночь (5:30)
02 Моё сердце сейчас это открытая рана (3:59)
03 Электричество (3:10)
04 Не отпускай её (4:33)
05 Новый день (4:44)
06 Химическая революция (4:49)
07 JUNK 2: Fatality (4:53)
08 Моя стая (6:21)
09 Королева FAKE (3:04)
10 Золото (7:01)
11 Исчерчены карты ft. Shiny Radio (Outro) (2:06)

Отчёт ЕАС:

Код:
Exact Audio Copy V0.99 prebeta 5 from 4. May 2009
EAC extraction logfile from 20. November 2010, 23:10
Jane Air / Weekend Warriors: Part two
Used drive  : _NEC    DVD_RW ND-3520A   Adapter: 0  ID: 1
Read mode               : Secure
Utilize accurate stream : Yes
Defeat audio cache      : Yes
Make use of C2 pointers : No
Read offset correction                      : 48
Overread into Lead-In and Lead-Out          : No
Fill up missing offset samples with silence : Yes
Delete leading and trailing silent blocks   : No
Null samples used in CRC calculations       : Yes
Used interface                              : Native Win32 interface for Win NT & 2000
Used output format              : User Defined Encoder
Selected bitrate                : 1024 kBit/s
Quality                         : High
Add ID3 tag                     : No
Command line compressor         : C:\Program Files\Exact Audio Copy\flac.exe
Additional command line options : -8 -V -T "ARTIST=%a" -T "TITLE=%t" -T "ALBUM=%g" -T "DATE=%y" -T "TRACKNUMBER=%n" -T "GENRE=%m" -T "COMMENT=EAC FLAC -8" %s
TOC of the extracted CD
     Track |   Start  |  Length  | Start sector | End sector
    ---------------------------------------------------------
        1  |  0:00.00 |  5:30.11 |         0    |    24760
        2  |  5:30.11 |  3:59.63 |     24761    |    42748
        3  |  9:29.74 |  3:10.62 |     42749    |    57060
        4  | 12:40.61 |  4:33.64 |     57061    |    77599
        5  | 17:14.50 |  4:44.02 |     77600    |    98901
        6  | 21:58.52 |  4:49.74 |     98902    |   120650
        7  | 26:48.51 |  4:53.15 |    120651    |   142640
        8  | 31:41.66 |  6:21.17 |    142641    |   171232
        9  | 38:03.08 |  3:04.12 |    171233    |   185044
       10  | 41:07.20 |  7:01.66 |    185045    |   216685
       11  | 48:09.11 |  2:06.33 |    216686    |   226168
Range status and errors
Selected range
     Filename D:\Jane Air\[2010] Weekend Warriors\CD2\Jane Air - Weekend Warriors  Part two.wav
     Peak level 100.0 %
     Range quality 100.0 %
     Test CRC FA673098
     Copy CRC FA673098
     Copy OK
No errors occurred
AccurateRip summary
Track  1  not present in database
Track  2  not present in database
Track  3  not present in database
Track  4  not present in database
Track  5  not present in database
Track  6  not present in database
Track  7  not present in database
Track  8  not present in database
Track  9  not present in database
Track 10  not present in database
Track 11  not present in database
None of the tracks are present in the AccurateRip database
End of status report

Отчёт auCDtect Task manager:

Код:
DON'T MODIFY THIS FILE
-----------------------
PERFORMER: auCDtect Task Manager, ver. 1.6.0 RC1 build 1.6.0.1
Copyright (c) 2008-2010 y-soft. All rights reserved
http://y-soft.org
ANALYZER: auCDtect: CD records authenticity detector, version 0.8.2
Copyright (c) 2004 Oleg Berngardt. All rights reserved.
Copyright (c) 2004 Alexander Djourik. All rights reserved.
FILE: Jane Air - Weekend Warriors  Part two.flac
  Size: 373380499 Hash: 834D2A3586987D8855F7D81EC3FCEBF5 Accuracy: -m0
  Conclusion: CDDA 100%
  Signature: A4A1DFCEA1C2B488E56727AD2182DAA7D5A40E04
FILE: Jane Air - Weekend Warriors  Part one.flac
  Size: 315067636 Hash: A7E0B3B1158C5527A64400666EFD18B6 Accuracy: -m0
  Conclusion: CDDA 100%
  Signature: 3EA5E42E099A6D14C0C49D9C70ABF69CAD0B207F

Об исполнителе

«Jane Air» — российская альтернативная группа, состоящая из четырёх участников: Антон «Boo!» Лиссов (вокал), Сергей «Корень» Григорьев (гитара), Сергей «Gokk» Макаров (бас-гитара), Антон «Тоха» Сагачко (барабаны).
Истоки группы лежат ещё в 1998—1999 году. 1 января 2001 сыграли первый сольный концерт в клубе «Молоко». В 2002 году подписали контракт с независимым питерским лейблом «Капкан Records» и выпустили дебютную пластинку «Pull Ya? Let It Doll Go!». Группа вместе с лейблом вели промо-кампанию в Интернете, а также организовали ряд альтернативных фестивалей («Праздник убитой ёлочной игрушки 2005—2009», «Stars Fucktory vol.1-6»), которые проходят и по сей день. «Jane Air» неоднократно играла в России на «разогреве» таких групп, как «Clawfinger» (2003), «Therapy?» (2004), «Linkin Park» (2007).
В 2005 году «Jane Air» выпустили на «Капкане» вторую пластинку «Jane Air», в том же году их песня Junk с первого альбома стала «Песней года» и получила премию RAMP (Rock Alternative Music Prize), учрежденную «Первым Альтернативным Музыкальным телеканалом A-One». После выхода двух альбомов «Jane Air» отправились в тур по России.
На третьей пластинке «Pere-Lachaise: Любовь и немного смерти» «Jane Air» кардинально изменили стиль музыки в сторону панк-рока, рискнув тем самым своими уже приобретёнными поклонниками.
В 2007 году «Jane Air» сменили лейбл и четвёртая пластинка «Sex and Violence» вышла на «A-One Records». Презентация прошла в столичном клубе «Б1 Maximum». Сразу после презентации группа отправилась в тур, насчитывающий более сотни городов. Тур закончился 31 мая 2008 года в Санкт-Петербурге сольным концертом во Дворце Спорта «Юбилейный».
В 2010 Jane Air выпускают пятый альбом Weekend Warriors, который выходит на двух дисках, а общая его продолжительность составляет почти полтора часа. Не придерживаясь какой-то определённой стилистики, группа играет треки разных направлений: инди, поп-панк разбавляя это насыщенной электроникой, которая впервые появляется у Jane Air в таких масштабах. Сразу же после выхода, группа отправляется в очередной масштабный тур по стране.
Время раздачи: 24/7 - круглосуточно
Other forum [Profile] [PM]

Dracula

Longevity: 6 years 1 month

Posts: 10699

Торрент-статистика

Post 09-Jun-2013 06:08 (after 1 hour 52 minutes)

Топик был перенесен из форума Rock в форум Russian Rock


p2000s
 
Display posts from previous:    
Reply to topic

The time now is: Today 18:57

All times are GMT + 3 Hours



You cannot post new topics in this forum
You cannot reply to topics in this forum
You cannot edit your posts in this forum
You cannot delete your posts in this forum
You cannot vote in polls in this forum
You cannot attach files in this forum
You cannot download files in this forum