Сегодня идет свободное скачивание без начисления Download

Чудеса на виражах / Talespin (Роберт Тэйлор) [1990-1991.,Рисованная анимация, Приключения]DVDRemux / SATRip / VHSRip (66 серий из 66)

Ответить на тему
 
Автор
Сообщение

sashau ®

Пол:

Стаж: 5 лет 11 месяцев

Сообщений: 3569

Торрент-статистика

Пост 05-Июн-2013 13:07

[Цитировать]

Чудеса на виражах / Talespin - Русское название: Чудеса на виражах
Оригинальное название: Talespin
Год выпуска: 1990-1991
Жанр: Рисованная анимация, Приключения
Описание:
Весёлое и опасное путешествие по небесным просторам в компании весёлого пилота-толстяка Балу и его отважных друзей. Воздушные пираты, погони за сокровищами и настоящая дружба.
Режиссер: Роберт Тэйлор
Персонажи: Балу , Луи, Шер-Хан, Кит Ветрогон, Дикий Кот, Баламут , Ребекка, Каннингем , Молли Каннингем, Дон Карнаж, Дон Зареж , Полковник Иванод Спигот, Полковник Втулка

Продолжительность: 66 х ~ 00:21:00
Качество: DVD-Remux [1x01-54,66] | SATRip (СТС) [1x55-65] | VHS-Rip [1x00]
Формат: MKV [1x01-65] | AVI [1x00]

Перевод:

Перевод и озвучка 01: Авторский (одноголосный закадровый): Михалёв [1x05;08;10-11;13-14;16;24;27;33;39-40;46;48;56;58]
Перевод и озвучка 02: Авторский (одноголосный закадровый): Кашкин [1x16,24]
Перевод и озвучка 03: Авторский (одноголосный закадровый): Живов [1x05;08;10-11;13-14;16;24;27;33;39-;40;46;48;56;58]
Перевод и озвучка 04: Авторский (одноголосный закадровый): Марченко [1x05;13;16;24;27;48;56]
Перевод и озвучка 05: Авторский (одноголосный закадровый): Санаев [1x08;13;25]
Перевод и озвучка 06: Авторский (одноголосный закадровый): Ошурков [1x05;08;10-11;13-14;16;24;27;33;39-40;46;48;56;58]
Перевод и озвучка 07: Профессиональный (дублированный): Останкино (1992) [1x00-10;13;15-26;28-29;36]
Перевод и озвучка 08: Профессиональный (дублированный): Невафильм (2003) [1x02-04;11-12;14;21;27;30-35;37-65]
Перевод и озвучка 09: Профессиональный (двухголосный): Гланц+Королёва [1x11)]
Перевод и озвучка 10: Любительский (дублированный): RXM-studio (2012) [1x00 (доперевод)]
Перевод и озвучка 11: Оригинал (английский): English [1x00-65]
Перевод и озвучка 12: Профессиональный (дублированный): French [1x01-27]

Технические данные:

Видео DVD-Remux:

Размер кадра:720x480
Кадров в сек: 29.97
Видео-кодек: MPEG Video
Битрейт видео:~5000kb/s
Перевод: Авторский, профессиональный
Аудио#1: Русский: АС3, 48 kHz, 2 канала, 256kb/s (Михалёв)
Аудио#2: Русский: АС3, 48 kHz, 2 канала, 256kb/s (Живов)
Аудио#3 Русский: АС3, 48 kHz, 2 канала, 256kb/s (Ошурков)
Аудио#4: Русский: АС3, 48 kHz, 2 канала, 256kb/s (Невафильм)
Аудио#5: Русский: АС3, 48 kHz, 2 канала, 256kb/s (Гланц+Королёва)
Аудио#6: Английский, АС3, 48 kHz, 2 канала, 192kb/s
Аудио#7: Французский, АС3, 48 kHz, 2 канала, 192kb/s
Субтитры: Английские, Французские

Отчёт MediaInfo DVD-Remux

Общее
Уникальный идентификатор : 196745357250561867493000983871406146788 (0x9403C709E63C07C5973EAC2B5E1F04E4)
Полное имя : ...\1x11 Polly Wants a Treasure [МИХАЛЁВ]+[ЖИВОВ]+[ОШУРКОВ]+[НЕВАФИЛЬМ'2003]+[ГЛАНЦ+КОРОЛЁВА]+[ENG]+[FR].mkv
Формат : Matroska
Размер файла : 962 Мбайт
Продолжительность : 22 м.
Общий поток : 5879 Кбит/сек
Дата кодирования : UTC 2012-02-28 21:00:17
Программа кодирования : mkvmerge v5.3.0 ('I could have danced') built on Feb 9 2012 10:38:07
Библиотека кодирования : libebml v1.2.3 + libmatroska v1.3.0
Видео
Идентификатор : 1
Формат : MPEG Video
Версия формата : Version 2
Профиль формата : Main@Main
Параметр BVOP формата : Нет
Параметр матрицы формата : По умолчанию
Идентификатор кодека : V_MPEG2
Идентификатор кодека/Информация: MPEG 1 or 2 Video
Продолжительность : 22 м.
Вид битрейта : Переменный
Битрейт : 4098 Кбит/сек
Номинальный битрейт : 8000 Кбит/сек
Ширина : 720 пикс.
Высота : 480 пикс.
Соотношение сторон : 4:3
Частота кадров : 59,940 кадр/сек
Частота кадров в оригинале : 29,970 кадр/сек
Стандарт вещания : NTSC
Цветовое пространство : YUV
Подвыборка цветности : 4:2:0
Битовая глубина : 8 бит
Тип развёртки : Чересстрочная
Порядок развёртки : Верхнее поле первое
Метод сжатия : С потерями
Бит/(Пиксели*Кадры) : 0.198
Размер потока : 671 Мбайт (70%)
Аудио #1
Идентификатор : 2
Формат : AC-3
Формат/Информация : Audio Coding 3
Расширение режима : CM (complete main)
Идентификатор кодека : A_AC3
Продолжительность : 22 м.
Вид битрейта : Постоянный
Битрейт : 256 Кбит/сек
Каналы : 2 канала
Расположение каналов : Front: L R
Частота : 48,0 КГц
Битовая глубина : 16 бит
Метод сжатия : С потерями
Задержка видео : -1 мс.
Размер потока : 41,9 Мбайт (4%)
Заголовок : Михалёв
Язык : Russian
Аудио #2
Идентификатор : 3
Формат : AC-3
Формат/Информация : Audio Coding 3
Расширение режима : CM (complete main)
Идентификатор кодека : A_AC3
Продолжительность : 22 м.
Вид битрейта : Постоянный
Битрейт : 256 Кбит/сек
Каналы : 2 канала
Расположение каналов : Front: L R
Частота : 48,0 КГц
Битовая глубина : 16 бит
Метод сжатия : С потерями
Задержка видео : -1 мс.
Размер потока : 41,9 Мбайт (4%)
Заголовок : Живов
Язык : Russian
Аудио #3
Идентификатор : 4
Формат : AC-3
Формат/Информация : Audio Coding 3
Расширение режима : CM (complete main)
Идентификатор кодека : A_AC3
Продолжительность : 22 м.
Вид битрейта : Постоянный
Битрейт : 256 Кбит/сек
Каналы : 2 канала
Расположение каналов : Front: L R
Частота : 48,0 КГц
Битовая глубина : 16 бит
Метод сжатия : С потерями
Задержка видео : -1 мс.
Размер потока : 41,9 Мбайт (4%)
Заголовок : Ошурков
Язык : Russian
Аудио #4
Идентификатор : 5
Формат : AC-3
Формат/Информация : Audio Coding 3
Расширение режима : CM (complete main)
Идентификатор кодека : A_AC3
Продолжительность : 22 м.
Вид битрейта : Постоянный
Битрейт : 256 Кбит/сек
Каналы : 2 канала
Расположение каналов : Front: L R
Частота : 48,0 КГц
Битовая глубина : 16 бит
Метод сжатия : С потерями
Задержка видео : -1 мс.
Размер потока : 41,9 Мбайт (4%)
Заголовок : Невафильм [2003]
Язык : Russian
Аудио #5
Идентификатор : 6
Формат : AC-3
Формат/Информация : Audio Coding 3
Расширение режима : CM (complete main)
Идентификатор кодека : A_AC3
Продолжительность : 22 м.
Вид битрейта : Постоянный
Битрейт : 256 Кбит/сек
Каналы : 2 канала
Расположение каналов : Front: L R
Частота : 48,0 КГц
Битовая глубина : 16 бит
Метод сжатия : С потерями
Задержка видео : -1 мс.
Размер потока : 41,9 Мбайт (4%)
Заголовок : Гланц+Королёва
Язык : Russian
Аудио #6
Идентификатор : 7
Формат : AC-3
Формат/Информация : Audio Coding 3
Профиль формата : Dolby Digital
Расширение режима : CM (complete main)
Идентификатор кодека : A_AC3
Продолжительность : 22 м.
Вид битрейта : Постоянный
Битрейт : 192 Кбит/сек
Каналы : 2 канала
Расположение каналов : Front: L R
Частота : 48,0 КГц
Битовая глубина : 16 бит
Метод сжатия : С потерями
Задержка видео : -1 мс.
Размер потока : 31,4 Мбайт (3%)
Заголовок : English [AC3; 2.0]
Язык : English
Аудио #7
Идентификатор : 8
Формат : AC-3
Формат/Информация : Audio Coding 3
Расширение режима : CM (complete main)
Идентификатор кодека : A_AC3
Продолжительность : 22 м.
Вид битрейта : Постоянный
Битрейт : 192 Кбит/сек
Каналы : 2 канала
Расположение каналов : Front: L R
Частота : 48,0 КГц
Битовая глубина : 16 бит
Метод сжатия : С потерями
Задержка видео : -1 мс.
Размер потока : 31,4 Мбайт (3%)
Заголовок : French [AC3; 2.0]
Язык : French
Текст #1
Идентификатор : 9
Формат : VobSub
Режим смешивания : zlib
Идентификатор кодека : S_VOBSUB
Идентификатор кодека/Информация: The same subtitle format used on DVDs
Язык : English
Текст #2
Идентификатор : 10
Формат : VobSub
Режим смешивания : zlib
Идентификатор кодека : S_VOBSUB
Идентификатор кодека/Информация: The same subtitle format used on DVDs
Язык : French

Скриншоты:

             

Видео SAT-Rip:

Размер кадра:704x576
Кадров в сек: 25
Видео-кодек: MPEG Video
Битрейт видео:~8000kb/s
Перевод: Авторский, профессиональный
Аудио#1: Русский: АС3, 48 kHz, 2 канала, 256kb/s (Михалёв)
Аудио#2: Русский: АС3, 48 kHz, 2 канала, 256kb/s (Живов)
Аудио#3: Русский: АС3, 48 kHz, 2 канала, 256kb/s (Марченко)
Аудио#4: Русский: АС3, 48 kHz, 2 канала, 256kb/s (Ошурков)
Аудио#5: Русский: АС3, 48 kHz, 2 канала, 256kb/s (Невафильм)
Аудио#6: Английский, АС3, 48 kHz, 2 канала, 256kb/s

Отчёт MediaInfo SAT-Rip

Общее
Уникальный идентификатор : 239564612477984804980398229862003393820 (0xB43A7750EED02B0A9AA96DF730FA451C)
Полное имя : ...\1x56 Mach One for the Gipper {СТС} [МИХАЛЁВ]+[ЖИВОВ]+[МАРЧЕНКО]+[ОШУРКОВ]+[НЕВАФИЛЬМ'2003]+[ENG].mkv
Формат : Matroska
Размер файла : 1,46 Гбайт
Продолжительность : 21 м.
Общий поток : 9537 Кбит/сек
Дата кодирования : UTC 2012-04-08 20:54:53
Программа кодирования : mkvmerge v5.5.0 ('Healer') built on Apr 6 2012 21:43:24
Библиотека кодирования : libebml v1.2.3 + libmatroska v1.3.0
Видео
Идентификатор : 1
Формат : MPEG Video
Версия формата : Version 2
Профиль формата : High@High
Параметр BVOP формата : Нет
Параметр матрицы формата : По умолчанию
Идентификатор кодека : V_MPEG2
Идентификатор кодека/Информация: MPEG 1 or 2 Video
Продолжительность : 21 м.
Вид битрейта : Переменный
Битрейт : 8000 Кбит/сек
Ширина : 704 пикс.
Высота : 576 пикс.
Соотношение сторон : 4:3
Частота кадров : 25,000 кадр/сек
Стандарт вещания : PAL
Цветовое пространство : YUV
Подвыборка цветности : 4:2:0
Битовая глубина : 8 бит
Тип развёртки : Чересстрочная
Порядок развёртки : Верхнее поле первое
Метод сжатия : С потерями
Бит/(Пиксели*Кадры) : 0.789
Размер потока : 1,19 Гбайт (82%)
Библиотека кодирования : TMPGEnc 2.524.63.181
Язык : English
Аудио #1
Идентификатор : 2
Формат : AC-3
Формат/Информация : Audio Coding 3
Расширение режима : CM (complete main)
Режим смешивания : Header stripping
Идентификатор кодека : A_AC3
Продолжительность : 21 м.
Вид битрейта : Постоянный
Битрейт : 256 Кбит/сек
Каналы : 2 канала
Расположение каналов : Front: L R
Частота : 48,0 КГц
Битовая глубина : 16 бит
Метод сжатия : С потерями
Размер потока : 40,1 Мбайт (3%)
Заголовок : Михалёв
Язык : Russian
Аудио #2
Идентификатор : 3
Формат : AC-3
Формат/Информация : Audio Coding 3
Расширение режима : CM (complete main)
Режим смешивания : Header stripping
Идентификатор кодека : A_AC3
Продолжительность : 21 м.
Вид битрейта : Постоянный
Битрейт : 256 Кбит/сек
Каналы : 2 канала
Расположение каналов : Front: L R
Частота : 48,0 КГц
Битовая глубина : 16 бит
Метод сжатия : С потерями
Размер потока : 40,1 Мбайт (3%)
Заголовок : Живов
Язык : Russian
Аудио #3
Идентификатор : 4
Формат : AC-3
Формат/Информация : Audio Coding 3
Расширение режима : CM (complete main)
Режим смешивания : Header stripping
Идентификатор кодека : A_AC3
Продолжительность : 21 м.
Вид битрейта : Постоянный
Битрейт : 256 Кбит/сек
Каналы : 2 канала
Расположение каналов : Front: L R
Частота : 48,0 КГц
Битовая глубина : 16 бит
Метод сжатия : С потерями
Размер потока : 40,1 Мбайт (3%)
Заголовок : Марченко
Язык : Russian
Аудио #4
Идентификатор : 5
Формат : AC-3
Формат/Информация : Audio Coding 3
Расширение режима : CM (complete main)
Режим смешивания : Header stripping
Идентификатор кодека : A_AC3
Продолжительность : 21 м.
Вид битрейта : Постоянный
Битрейт : 256 Кбит/сек
Каналы : 2 канала
Расположение каналов : Front: L R
Частота : 48,0 КГц
Битовая глубина : 16 бит
Метод сжатия : С потерями
Размер потока : 40,1 Мбайт (3%)
Заголовок : Ошурков
Язык : Russian
Аудио #5
Идентификатор : 6
Формат : MPEG Audio
Версия формата : Version 1
Профиль формата : Layer 2
Режим смешивания : Header stripping
Идентификатор кодека : A_MPEG/L2
Идентификатор кодека/Подсказка : MP2
Продолжительность : 21 м.
Вид битрейта : Постоянный
Битрейт : 256 Кбит/сек
Каналы : 2 канала
Частота : 48,0 КГц
Метод сжатия : С потерями
Размер потока : 40,1 Мбайт (3%)
Заголовок : Невафильм'2003
Язык : Russian
Аудио #6
Идентификатор : 7
Формат : AC-3
Формат/Информация : Audio Coding 3
Расширение режима : CM (complete main)
Режим смешивания : Header stripping
Идентификатор кодека : A_AC3
Продолжительность : 21 м.
Вид битрейта : Постоянный
Битрейт : 256 Кбит/сек
Каналы : 2 канала
Расположение каналов : Front: L R
Частота : 48,0 КГц
Битовая глубина : 16 бит
Метод сжатия : С потерями
Размер потока : 40,1 Мбайт (3%)
Заголовок : English
Язык : English

Скриншоты:

         

Видео VHS-Rip:

Размер кадра:640x480
Кадров в сек: 23.976
Видео-кодек: XVID
Битрейт видео:~1376kb/s
Перевод: Авторский, профессиональный
Аудио#1: Русский: АС3, 48 kHz, 2 канала, 256kb/s (Останкино)
Аудио#2: Английский: АС3, 48 kHz, 1 канал, 128kb/s

Отчёт MediaInfo VHS-Rip

Общее
Полное имя : ...\1x00 Plunder and Lightning {UNCUT} [ОСТАНКИНО+RXM].avi
Формат : AVI
Формат/Информация : Audio Video Interleave
Размер файла : 1,12 Гбайт
Продолжительность : 1 ч. 30 м.
Общий поток : 1774 Кбит/сек
Название фильма : Plunder and Lightning
Режиссёр : SB
Тема : Unedited, uncut version of Plunder and Lightning
Ключевые слова : Tale Spin, Talespin, Plunder and Lightning
Дата записи : 11/27/04 02:23:00
Программа кодирования : VirtualDubMod 1.5.10.3 | www.virtualdub-fr.org || (build 2550/release)
Библиотека кодирования : VirtualDubMod build 2550/release
Правообладатель : 1990 The Walt Disney Company
Видео
Идентификатор : 0
Формат : MPEG-4 Visual
Профиль формата : Advanced Simple@L5
Параметр BVOP формата : 2
Параметр QPel формата : Да
Параметр GMC формата : Без точки перехода
Параметр матрицы формата : Default (H.263)
Режим смешивания : Сжатый битовый поток
Идентификатор кодека : XVID
Идентификатор кодека/Подсказка: XviD
Продолжительность : 1 ч. 30 м.
Битрейт : 1376 Кбит/сек
Ширина : 640 пикс.
Высота : 480 пикс.
Соотношение сторон : 4:3
Частота кадров : 23,976 кадр/сек
Цветовое пространство : YUV
Подвыборка цветности : 4:2:0
Битовая глубина : 8 бит
Тип развёртки : Прогрессивная
Метод сжатия : С потерями
Бит/(Пиксели*Кадры) : 0.187
Размер потока : 892 Мбайт (78%)
Библиотека кодирования : XviD 1.0.2 (UTC 2004-08-29)
Аудио #1
Идентификатор : 1
Формат : AC-3
Формат/Информация : Audio Coding 3
Расширение режима : CM (complete main)
Идентификатор кодека : 2000
Продолжительность : 1 ч. 30 м.
Вид битрейта : Постоянный
Битрейт : 256 Кбит/сек
Каналы : 2 канала
Расположение каналов : Front: L R
Частота : 48,0 КГц
Битовая глубина : 16 бит
Метод сжатия : С потерями
Размер потока : 166 Мбайт (14%)
Выравнивание : Разделение по промежуткам
Продолжительность промежутка : 42 мс. (1,00 видеокадр)
Время предзагрузки промежутка : 500 ms
Аудио #2
Идентификатор : 2
Формат : MPEG Audio
Версия формата : Version 1
Профиль формата : Layer 3
Идентификатор кодека : 55
Идентификатор кодека/Подсказка: MP3
Продолжительность : 1 ч. 30 м.
Вид битрейта : Постоянный
Битрейт : 128kb Кбит/сек
Каналы : 1 канала
Частота : 48,0 КГц
Метод сжатия : С потерями
Размер потока : 83,0 Мбайт (7%)
Выравнивание : Разделение по промежуткам
Продолжительность промежутка : 42 мс. (1,00 видеокадр)
Время предзагрузки промежутка : 500 ms
Библиотека кодирования : LAME3.97 (alpha)

Скриншоты:

             

Расшифровка тегов в названиях файлов

1x01 - Номер сезона X Номер серии
ОСТАНКИНО'1992 - дублированный перевод телекомпании "Останкино" (1992 год)
НЕВАФИЛЬМ'2003 - дублированный перевод студии "Невафильм" (2003)
[МИХАЛЁВ] - авторский перевод Алексея Михалёва
[КАШКИН] - авторский перевод Александра "Первомайского" Кашкина
[ЖИВОВ] - авторский перевод Юрия Живова
[МАРЧЕНКО] - авторский перевод Александра Марченко
[САНАЕВ] - авторский перевод Павла Санаева
[ОШУРКОВ] - авторский перевод Максима Ошуркова
[ГЛАНЦ+КОРОЛЁВА] - двухголосный перевод и озвучка Петра Гланца и Инны Королёвой по заказу группы DisneyJazz
[RXM-Studio] - псевдодублированная озвучка (пропущенных фрагментов полнометражки) студии "RXM": Оксаны Лисовой, Натальи Кузьминой, Галины Ихонькиной и Андрея Шевчука по эксклюзивному переводу Александра Иса
[ENG] - оригинальная (английская) звуковая дорожка
[FR] - дублированный перевод на французском языке
{СТС} - исходники серий в формате SAT-Rip

Список серий

1x00 Грабёж и молнии {UNCUT} [ОСТАНКИНО+RXM]+[ENG].avi
1x01 Грабёж и молнии (1 серия) [ОСТАНКИНО'1992]+[ENG]+[FR].mkv
1x02 Грабёж и молнии (2 серия)[ОСТАНКИНО'1992]+[НЕВАФИЛЬМ'2003]+[ENG]+[FR].mkv
1x03 Грабёж и молнии (3 серия) [ОСТАНКИНО'1992]+[НЕВАФИЛЬМ'2003]+[ENG]+[FR].mkv
1x04 Грабёж и молнии (4 серия) [ОСТАНКИНО'1992]+[НЕВАФИЛЬМ'2003]+[ENG]+[FR].mkv
1x05 Кто заменит робота? [МИХАЛЁВ]+[ОСТАНКИНО'1992]+[ЖИВОВ]+[МАРЧЕНКО]+[ОШУРКОВ]+[ENG]+[FR].mkv
1x06 Пираты и морское чудище [ОСТАНКИНО'1992]+[ENG]+[FR].mkv
1x07 Время не ждёт[ОСТАНКИНО'1992]+[ENG]+[FR].mkv
1x08 Mommy for a Day [МИХАЛЁВ (неполный)]+[САНАЕВ]+[ЖИВОВ]+[ОШУРКОВ]+[ОСТАНКИНО'1992]+[ENG]+[FR].mkv
1x09 Лёд и больше ничего [ОСТАНКИНО'1992]+[ENG]+[FR].mkv
1x10 Молли в неволе[МИХАЛЁВ]+[ЖИВОВ]+[ОШУРКОВ]+[ОСТАНКИНО'1992]+[ENG]+[FR].mkv
1x11 К сокровищу приведет попугай [МИХАЛЁВ]+[ЖИВОВ]+[ОШУРКОВ]+[НЕВАФИЛЬМ'2003]+[ГЛАНЦ+КОРОЛЁВА]+[ENG]+[FR].mkv
1x12 Игра слов [НЕВАФИЛЬМ'2003]+[ENG]+[FR].mkv
1x13 TКому дороже идол? МИХАЛЁВ]+[САНАЕВ]+[ЖИВОВ]+[МАРЧЕНКО]+[ОШУРКОВ]+[ОСТАНКИНО'1992]+[ENG]+[FR].mkv
1x14 В штормовую погоду [МИХАЛЁВ]+[НЕВАФИЛЬМ'2003]+[ЖИВОВ]+[ОШУРКОВ]+[ENG]+[FR].mkv
1x15 Еле-еле душа в теле [ОСТАНКИНО'1992]+[ENG]+[FR].mkv
1x16 Мечты, где ваша сладость? [МИХАЛЁВ]+[КАШКИН]+[ЖИВОВ]+[МАРЧЕНКО]+[ОШУРКОВ]+[ОСТАНКИНО'1992]+[ENG]+[FR].mkv
1x17 Суета из-за кита [ОСТАНКИНО'1992]+[ENG]+[FR].mkv
1x18 Тембрийская награда [ОСТАНКИНО'1992]+[ENG]+[FR].mkv
1x19 Надбавка за заправку[ОСТАНКИНО'1992]+[ENG]+[FR].mkv
1x20 Просто у Вас глупый вид (1 серия) [ОСТАНКИНО'1992]+[ENG]+[FR].mkv
1x21 Просто у Вас глупый вид (2 серия) [ОСТАНКИНО'1992]+[НЕВАФИЛЬМ'2003]+[ENG]+[FR].mkv
1x22 Медведь на бреющем полёте [ОСТАНКИНО'1992]+[ENG]+[FR].mkv
1x23 И звёзды меркнут [ОСТАНКИНО'1992]+[ENG]+[FR].mkv
1x24 Не всё то золото, что блестит [МИХАЛЁВ]+[КАШКИН]+[ЖИВОВ]+[МАРЧЕНКО]+[ОШУРКОВ]+[ОСТАНКИНО'1992]+[ENG]+[FR].mkv
1x25 TЧем они больше, тем сильнее хрюкают They Oink [САНАЕВ]+[ОСТАНКИНО'1992]+[ENG]+[FR].mkv
1x26 Шпион познаётся в беде [ОСТАНКИНО'1992]+[ENG]+[FR].mkv
1x27 Балу голубых кровей [МИХАЛЁВ]+[НЕВАФИЛЬМ'2003]+[МАРЧЕНКО]+[ЖИВОВ]+[ОШУРКОВ]+[ENG]+[FR].mkv
1x28 Превращения от похищения [ОСТАНКИНО'1992]+[ENG].mkv
1x29 Легендарный авиатор Джексон[ОСТАНКИНО'1992]+[ENG].mkv
1x30 Всё или ничего [НЕВАФИЛЬМ'2003]+[ENG].mkv
1x31 В воздухе женщины[НЕВАФИЛЬМ'2003]+[ENG].mkv
1x32 Город за горизонтом [НЕВАФИЛЬМ'2003]+[ENG].mkv
1x33 Полёт снежного утёнка [МИХАЛЁВ]+[ЖИВОВ]+[ОШУРКОВ]+[НЕВАФИЛЬМ'2003]+[ENG].mkv
1x34 Если ты спас тигра [НЕВАФИЛЬМ'2003]+[ENG].mkv
1x35 Старик и утёнок [НЕВАФИЛЬМ'2003]+[ENG].mkv
1x36 Война врунов[ОСТАНКИНО'1992]+[ENG].mkv
1x37 Грозные капитаны [НЕВАФИЛЬМ'2003]+[ENG].mkv
1x38 Бандиты и время[НЕВАФИЛЬМ'2003]+[ENG].mkv
1x39 По ком звонит колокол? (1 серия) [МИХАЛЁВ]+[ЖИВОВ]+[ОШУРКОВ]+[НЕВАФИЛЬМ'2003]+[ENG].mkv
1x40 По ком звонит колокол? (2 серия)) [МИХАЛЁВ]+[ЖИВОВ]+[ОШУРКОВ]+[НЕВАФИЛЬМ'2003]+[ENG].mkv
1x41 Гражданин Хан[НЕВАФИЛЬМ'2003]+[ENG].mkv
1x42 Овёс и необычное наказание[НЕВАФИЛЬМ'2003]+[ENG].mkv
1x43С рождеством, Молли! [НЕВАФИЛЬМ'2003]+[ENG].mkv
1x44 Воспитание Балу [НЕВАФИЛЬМ'2003]+[ENG].mkv
1x45 Искатели утраченного сокровища [НЕВАФИЛЬМ'2003]+[ENG].mkv
1x46 Лучшая школа пилотов [МИХАЛЁВ]+[ЖИВОВ]+[ОШУРКОВ]+[НЕВАФИЛЬМ'2003]+[ENG].mkv
1x47 Задержание Младенчика [НЕВАФИЛЬМ'2003]+[ENG].mkv
1x48 Пушки и прыжки [МИХАЛЁВ]+[ЖИВОВ]+[МАРЧЕНКО]+[ОШУРКОВ]+[НЕВАФИЛЬМ'2003]+[ENG].mkv
1x49 В поисках ошибок древности [НЕВАФИЛЬМ'2003]+[ENG].mkv
1x50 Последний шанс Луи[НЕВАФИЛЬМ'2003]+[ENG].mkv
1x51 Глубокие знания [НЕВАФИЛЬМ'2003]+[ENG].mkv
1x52 Пиццу с неба получай [НЕВАФИЛЬМ'2003]+[ENG].mkv
1x53 Балу-громовержец [НЕВАФИЛЬМ'2003]+[ENG].mkv
1x54 Реактивный Балу[НЕВАФИЛЬМ'2003]+[ENG].mkv
1x55 Судьба возвращается опять {СТС} [НЕВАФИЛЬМ'2003]+[ENG].mkv
1x56 Матч для Гриппера {СТС} [МИХАЛЁВ]+[ЖИВОВ]+[МАРЧЕНКО]+[ОШУРКОВ]+[НЕВАФИЛЬМ'2003]+[ENG].mkv
1x57 Застрял в тебе {СТС} [НЕВАФИЛЬМ'2003]+[ENG].mkv
1x58 Звук и пушистость {СТС} [МИХАЛЁВ]+[ЖИВОВ]+[ОШУРКОВ]+[НЕВАФИЛЬМ'2003]+[ENG].mkv
1x59 Выкуп Красного шимпанзеСТС} [НЕВАФИЛЬМ'2003]+[ENG].mkv
1x60 Дорога к Макадамии {СТС} [НЕВАФИЛЬМ'2003]+[ENG].mkv
1x61Ваш Балу на почте{СТС} [НЕВАФИЛЬМ'2003]+[ENG].mkv
1x62 Потеряный рай {СТС} [НЕВАФИЛЬМ'2003]+[ENG].mkv
1x63 Невероятная потеря Молли {СТС} [НЕВАФИЛЬМ'2003]+[ENG].mkv
1x64 Былое {СТС} [НЕВАФИЛЬМ'2003]+[ENG].mkv
1x65 Обманутые полётом {СТС} [НЕВАФИЛЬМ'2003]+[ENG].mkv
Скриншоты:
           
Вне форума [Профиль] [ЛС]
Показать сообщения:    
Ответить на тему

Текущее время: Сегодня 14:09

Часовой пояс: GMT + 3



Вы не можете начинать темы
Вы не можете отвечать на сообщения
Вы не можете редактировать свои сообщения
Вы не можете удалять свои сообщения
Вы не можете голосовать в опросах
Вы не можете прикреплять файлы к сообщениям
Вы не можете скачивать файлы