Сегодня идет свободное скачивание без начисления Download

Изнанка дела / Преступления прошлого / Case Histories (2011) WEB-DLRip (Сезон 1, Серии 1 из 6) AlexFilm (Обновляемая)

Ответить на тему
 
Автор
Сообщение

UndegraundMen ®

Стаж: 5 лет 3 месяца

Сообщений: 25871

Торрент-статистика

Пост 05-Июн-2013 04:19

[Цитировать]

Изнанка дела / Преступления прошлого / Case Histories (2011) WEB-DLRip (Сезон 1, Серии 1 из 6) AlexFilm (Обновляемая)- Русское название: Изнанка дела / Преступления прошлого
Оригинальное название: Case Histories
Год выпуска: 2011
Страна: Великобритания
Жанр: Детектив, Драма, Криминал
Перевод: Многоголосый закадровый, профессиональный

Автор перевода: Vipere и Илья Белкин
Монтаж и сведение звука: Михаил Шорыгин
Роли озвучивали: Евгения Тихонова, Татьяна Манетина, Михаил Суслов, Александр Дасевич, Константин Погодаев

Режиссер: Билл Андерсон, Марк Йобст, Дэн Зефф
Актеры: Джейсон Айзекс (Джексон Броуди), Аманда Аббингтон, Кирсти Митчел, Зэйв Эштон, Наташа Литтл, Милли Иннес, Эдвард Корри, Филип Дэвис, Пэтерсон Джозеф, Адам Годли, Том Гудман-Хилл
Описание фильма:
Однажды в Эдинбурге... Хотя это могло произойти и в другом городе туманного Альбиона, только было бы не так красиво… Впрочем, вернемся к сюжету. Одинокий (потому что разведён) частный детектив Джексон Броуди (Джейсон Айзекс) часто отказывается вести дело, если клиент ему неприятен. Зато сам ввязывается в дела, где его помощь вроде бы не нужна, а полиция, в которой он долго работал и ушёл оттуда с большим скандалом, так и прямо намекает, чтобы он держался в стороне. Однако наш герой не из таких. Куда детектива Джексона Броуди приведёт его собственное любопытство, пережитый им опыт потери сестры и насыщенная преступлениями жизнь провинциального Эдинбурга – смотрите в 6-серийном мини британского производства Case Histories по произведениям Кейт Аткинсон.
Продолжительность: 6 серий по ~59 мин
Качество видео: WEB-DLRip
Видеокодек: Xvid
Формат: AVI
Битрейт видео: ~1384 kb/s
Размер кадра: 720х400 (16x9)
Аудиокодек: MP3
Битрейт аудио: 128 kb/s
Аудио Rus: (48 kHz, MPEG Layer 3, 2 ch, 128 k/bs)- многоголосый закадровый
Аудио Eng: (48 kHz, MPEG Layer 3, 2 ch, 128 k/bs)- оригинал Сэмпл

MediaInfo

Общее
Полное имя : D:\Downloads\Изнанка дела (Сезон 1) Case Histories (2011) WEBDL-Rip (AlexFilm)\Case.Histories.s01e01.Case.Histories.Part.1.WEB-DLRip.AlexFilm.avi
Формат : AVI
Формат/Информация : Audio Video Interleave
Размер файла : 701 Мбайт
Продолжительность : 59 м.
Общий поток : 1655 Кбит/сек
Название фильма : Case Histories 1x01 Case Histories - Part 1 @ AlexFilm
Программа кодирования : VirtualDubMod 1.5.10.2 (build 2542/release)
Видео
Идентификатор : 0
Формат : MPEG-4 Visual
Профиль формата : Advanced Simple@L5
Параметр BVOP формата : 1
Параметр QPel формата : Нет
Параметр GMC формата : Без точки перехода
Параметр матрицы формата : Default (MPEG)
Идентификатор кодека : XVID
Идентификатор кодека/Подсказка : XviD
Продолжительность : 59 м.
Битрейт : 1384 Кбит/сек
Ширина : 720 пикселей
Высота : 400 пикселей
Соотношение сторон : 16:9
Частота кадров : 25,000 кадров/сек
Цветовое пространство : YUV
Субдискретизация насыщенности : 4:2:0
Битовая глубина : 8 бит
Тип развёртки : Прогрессивная
Метод сжатия : С потерями
Бит/(Пиксели*Кадры) : 0.192
Размер потока : 586 Мбайт (84%)
Библиотека кодирования : XviD 1.2.1 (UTC 2008-12-04)
Аудио #1
Идентификатор : 1
Формат : MPEG Audio
Версия формата : Version 1
Профиль формата : Layer 3
Режим : Joint stereo
Расширение режима : MS Stereo
Идентификатор кодека : 55
Идентификатор кодека/Подсказка : MP3
Продолжительность : 59 м.
Вид битрейта : Постоянный
Битрейт : 128 Кбит/сек
Каналы : 2 канала
Частота : 48,0 КГц
Метод сжатия : С потерями
Размер потока : 54,2 Мбайт (8%)
Выравнивание : Соединение по промежуткам
Продолжительность промежутка : 40 мс. (1,00 видеокадр)
Время предзагрузки промежутка : 504 мс.
Заголовок : Russian (AlexFilm)
Аудио #2
Идентификатор : 2
Формат : MPEG Audio
Версия формата : Version 1
Профиль формата : Layer 3
Режим : Joint stereo
Расширение режима : MS Stereo
Идентификатор кодека : 55
Идентификатор кодека/Подсказка : MP3
Продолжительность : 59 м.
Вид битрейта : Постоянный
Битрейт : 128 Кбит/сек
Каналы : 2 канала
Частота : 48,0 КГц
Метод сжатия : С потерями
Размер потока : 54,2 Мбайт (8%)
Выравнивание : Соединение по промежуткам
Продолжительность промежутка : 40 мс. (1,00 видеокадр)
Время предзагрузки промежутка : 504 мс.
Заголовок : English

Раздача ведётся путём добавления новых серий

Раздача ведётся путём добавления новых серий; при каждом добавлении создаётся новый торрент. Чтобы начать докачку новой серии, пользователям необходимо сделать следующее:
(1) остановить скачивание,
(2) удалить старый торрент у себя из клиента (старые серии удалять не надо),
(3) скачать новый торрент и запустить его у себя в клиенте вместо старого, при этом указать клиенту путь в старую папку куда и должно происходить скачивание новых серий.
Ваш клиент при этом должен произвести хеширование (проверку) старой папки (если не производит сам - помогите ему сделать это), и будет докачивать только те серии которых у вас ещё нет. Старые серии при этом не удаляются, а продолжают раздаваться!
Eсли вы уже удалили старые серии, то предотвратить повторную закачку старых серий можно, отжав галочку в соответствующих местах при запуске нового торрента. По возможности, желательно не удалять старые серии как можно дольше чтобы релизёр не столько продолжал раздавать старые серии, а смог сконцентрироваться на новых.
Скриншоты:
       
Вне форума [Профиль] [ЛС]
Показать сообщения:    
Ответить на тему

Текущее время: Сегодня 00:13

Часовой пояс: GMT + 3



Вы не можете начинать темы
Вы не можете отвечать на сообщения
Вы не можете редактировать свои сообщения
Вы не можете удалять свои сообщения
Вы не можете голосовать в опросах
Вы не можете прикреплять файлы к сообщениям
Вы не можете скачивать файлы