Сегодня идет свободное скачивание без начисления Download

Женщина-констебль - 56 / WPC 56 (2013) HDTVRip [Сезон: 1 / Серии: 1 (5)] (студия Райдо) [Обновляемая]

Ответить на тему
 
Автор
Сообщение

UndegraundMen ®

Стаж: 5 лет 6 месяцев

Сообщений: 25861

Торрент-статистика

Пост 04-Июн-2013 03:40

[Цитировать]

Женщина-констебль - 56 / WPC 56 (2013) HDTVRip [Сезон: 1 / Серии: 1 (5)] (студия Райдо)[Обновляемая]- Русское название: Женщина-констебль - 56
Оригинальное название: WPC 56
Год выпуска: 2013
Страна: Великобритания
Жанр: Криминальная, драма
Продолжительность: ~00:44:00 серия
Перевод: Любительский двухголосый - студия "Райдо"
Язык субтитров: Русский
Вид субтитров: Внешние (отдельным файлом)-Режиссер: Доминик Молони/Dominique Moloney
Актеры: Дженни Жак, Киран Бью, Чарльз Де’Ат, Джастин Кэйн, Джон Лайт, Крис Овертон, Филип Хилл-Пирсон, Джерард Хоран, Марианн Олдхэм, Крис Уилсон-Описание: Выпускница полицейской школы Джина Доусон попадает по распределению в полицейский участок Бринфорда. На дворе конец 50-х, и в полиции, как и повсюду в обществе, процветает мужской шовинизм, расизм, коррупция и крутые нравы. Поначалу бравые офицеры полицейского подразделения отказываются принимать всерьёз юную, хорошенькую, слегка наивную коллегу, поглядывая на неё снисходительно и с долей иронии. Джине придётся вынести немало насмешек и издевательств, не раз доказывать свою профпригодность, отстаивать права задержанных, ввязываясь в нелёгкое противостояние с представителями сильного пола.-Дополнительная информация:
Релиз студия Райдо
Закадровый текст читали: Полина Касаткина и Сергей Калугин
Перевод на русский язык на сайте Нотабеноид: inessa_muh, tekinka, izolenta, ser3141, Alex_ander, Ihseen, Podruga-
Сэмпл: -Качество видео: HDTVRip
Видео: MPEG4, DivX 5, 720x400 (16:9), 25.000 fps, 1 091 Kbps (0.152 bit/pixel)
Аудио: MP3, 2 ch, 192 Кбит/с
Аудио #1:Рус. MP3, 48.0 KHz, 2 ch, 192 Kbps, CBR
Аудио #2:Анг. MP3, 48.0 KHz, 2 ch, 192 Kbps, CBR

Список серий:

01. Пан или пропал

Раздача ведётся путём добавления новых серий

Раздача ведётся путём добавления новых серий; при каждом добавлении создаётся новый торрент. Чтобы начать докачку новой серии, пользователям необходимо сделать следующее:
(1) остановить скачивание,
(2) удалить старый торрент у себя из клиента (старые серии удалять не надо),
(3) скачать новый торрент и запустить его у себя в клиенте вместо старого, при этом указать клиенту путь в старую папку куда и должно происходить скачивание новых серий.
Ваш клиент при этом должен произвести хеширование (проверку) старой папки (если не производит сам - помогите ему сделать это), и будет докачивать только те серии которых у вас ещё нет. Старые серии при этом не удаляются, а продолжают раздаваться!
Eсли вы уже удалили старые серии, то предотвратить повторную закачку старых серий можно, отжав галочку в соответствующих местах при запуске нового торрента. По возможности, желательно не удалять старые серии как можно дольше чтобы релизёр не столько продолжал раздавать старые серии, а смог сконцентрироваться на новых.

MediaInfo

Полное имя : F:\Сериал\раздача\WPC 56\WPC 56 s01e01Raidho.avi
Формат : AVI
Формат/Информация : Audio Video Interleave
Размер файла : 469 Мбайт
Продолжительность : 44 м.
Общий поток : 1490 Кбит/сек
Программа кодирования : VirtualDubMod 1.5.10.2 (build 2540/release)
Библиотека кодирования : VirtualDubMod build 2540/release
Видео
Идентификатор : 0
Формат : MPEG-4 Visual
Профиль формата : Advanced Simple@L5
Параметр BVOP формата : 2
Параметр QPel формата : Нет
Параметр GMC формата : Без точки перехода
Параметр матрицы формата : Default (MPEG)
Идентификатор кодека : DX50
Идентификатор кодека/Подсказка : DivX 5
Продолжительность : 44 м.
Битрейт : 1091 Кбит/сек
Ширина : 720 пикс.
Высота : 400 пикс.
Соотношение сторон : 16:9
Частота кадров : 25,000 кадр/сек
Цветовое пространство : YUV
Подвыборка цветности : 4:2:0
Битовая глубина : 8 бит
Тип развёртки : Прогрессивная
Метод сжатия : С потерями
Бит/(Пиксели*Кадры) : 0.152
Размер потока : 344 Мбайт (73%)
Библиотека кодирования : XviD 1.2.1 (UTC 2008-12-04)
Аудио #1
Идентификатор : 1
Формат : MPEG Audio
Версия формата : Version 1
Профиль формата : Layer 3
Режим : Joint stereo
Идентификатор кодека : 55
Идентификатор кодека/Подсказка : MP3
Продолжительность : 44 м.
Вид битрейта : Постоянный
Битрейт : 192 Кбит/сек
Каналы : 2 канала
Частота : 48,0 КГц
Метод сжатия : С потерями
Размер потока : 60,5 Мбайт (13%)
Выравнивание : Соединение по промежуткам
Продолжительность промежутка : 40 мс. (1,00 видеокадр)
Время предзагрузки промежутка : 504 ms
Библиотека кодирования : LAME3.99r
Настройки программы : -m j -V 4 -q 2 -lowpass 18.6 -b 192
Аудио #2
Идентификатор : 2
Формат : MPEG Audio
Версия формата : Version 1
Профиль формата : Layer 3
Идентификатор кодека : 55
Идентификатор кодека/Подсказка : MP3
Продолжительность : 44 м.
Вид битрейта : Постоянный
Битрейт : 192 Кбит/сек
Каналы : 2 канала
Частота : 48,0 КГц
Метод сжатия : С потерями
Размер потока : 60,5 Мбайт (13%)
Выравнивание : Соединение по промежуткам
Продолжительность промежутка : 40 мс. (1,00 видеокадр)
Время предзагрузки промежутка : 504 ms
Библиотека кодирования : LAME3.99r
Настройки программы : -m s -V 4 -q 2 -lowpass 18.6 -b 192
       
       
Вне форума [Профиль] [ЛС]
Похожие темы
Форум Тема Автор Торрент Отв. Посл. сообщение
./templates/default/images/folder_dl.gif Обучающее видео Алекс Мэй | Идеальный вечер для женщин (2014) CamRip [сексология, соблазнение] Omen
1 | 0

0 | 1070

111

2015-06-05 00:03
Omen Последнее
Показать сообщения:    
Ответить на тему

Текущее время: Сегодня 10:07

Часовой пояс: GMT + 3



Вы не можете начинать темы
Вы не можете отвечать на сообщения
Вы не можете редактировать свои сообщения
Вы не можете удалять свои сообщения
Вы не можете голосовать в опросах
Вы не можете прикреплять файлы к сообщениям
Вы не можете скачивать файлы