Сегодня идет свободное скачивание без начисления Download

Симпсоны (24 сезон, Серии 22 из 22) / The Simpsons (Мэтт Гроунинг) (Комедия, 2012) [H.264/720p-LQ] WEB-DLRip (Обновляемая раздача)

Ответить на тему
 
Автор
Сообщение

Omen ®

Стаж: 4 года 10 месяцев

Сообщений: 190643

Торрент-статистика

Пост 03-Июн-2013 21:30

[Цитировать]

Симпсоны / The Simpsons - Русское название: Симпсоны
Оригинальное название: The Simpsons
Год выпуска: 2012-2013гг.
Жанр: Комедия
Описание:
Сюжет мультфильма Симпсоны — расскажет судьбу Американской семьи Симпсоны. Их жизнь очень разнообразно, веселая и непредсказуемая. Состав семьи 5 человек: Отец Гомер, мама Марджа, дочь Лиза, вторая дочь Мегии и убойный подросток Барт. Могу Вам смело сказать, что данная семья Симпсонов уникальна и неповторима, уже более 20 лет они на экранах сотни каналов во всем мире. С каждым годом, мультфильм обретает новое веение и развивается вместе со всеми, и миром в целом. За все годы съемок данного мультфильма, он стал еще более интересный и веселым, самое главное он не надоедает. Мультфильм наполнен очень качественным юмором, который уже много лет радует зрителя. В некотором, сериал Simpsons отображает жизнь среднестатистического Американца, что делает сериал более смотрибельным. В мультфильме очень часто затрагивают такие темы как: однополые браки (геи), политика, религия, различные скандалы и многое другое.
Режиссер: Мэтт Гроунинг
Персонажи: Гомер Джей Симпсон, Марджери «Мардж» Симпсон, Бартоломью Джо-Джо «Барт» Симпсон, Лиза Мэри Симпсон, Маргарет «Мэгги» Симпсон
Продолжительность: 22 х ~00:22:00
Перевод: Многоголосый закадровый
Автор перевода: CtrlHD
Релиз группа: VO-Production
Формат: MKV
Видеокодек: MPEG-4 AVC/H.264
Битрейт видео: ~3657 Kbps
Размер кадра: 1280 х 720
Качество видео: WEB-DLRip
Аудио 1: AC3, 2.0, 192 kb/s VBR, Русский
Аудио 2: AC3, 2.0, 384 kb/s VBR, English

Список серий:

1. Лунное сияние на реке / Moonshine River
2. Дом ужасов 23 / Treehouse of Horror XXIII
3. Приключения в детском транспорте / Adventures in Baby-Getting
4. Пропал, Эйби, пропал / Gone Abie Gone
5. Мелочные парни / Penny-Wiseguys
6. Дерево, растущее в Спрингфилде / A Tree Grows in Springfield
7. День, когда Земля стала крутой / The Day the Earth Stood Cool
8. Кьюр, с любовью / To Cur With Love
9. Гомер проходит подготовку / Homer Goes to Prep School
10. Мучительное испытание / A Test Before Trying
11. Поиск опекунов / The Changing of the Guardian
12. Любовь - это вещь, разбитая на много кусочков / Love Is a Many Splintered Thing
13. Практически Кирк / Hardly Kirk-ing
14. Шикарный дедуля / Gorgeous Grampa
15. Фингал, пожалуйста / Black Eyed, Please
16. Тёмный рыцарь и суд / Dark Knight Court
17. Чего хотят анимационные женщины / What Animated Women Want
18. Проповеднические разногласия / Pulpit Friction
19. Продавец виски / Whiskey Business
20. Потрясающий обманщик / The Fabulous Faker Boy
21. Сага о Карле Карлсоне / The Saga of Carl Carlson
22. Опасности в поезде / Dangers on a Train

MediaInfo

Формат : Matroska
Версия формата : Version 2
Размер файла : 659 Мбайт
Продолжительность : 21 м.
Общий поток : 4319 Кбит/сек
Дата кодирования : UTC 2012-10-18 21:31:31
Программа кодирования : mkvmerge v5.3.0 ('I could have danced') built on Mar 4 2012 19:18:32
Библиотека кодирования : libebml v1.2.3 + libmatroska v1.3.0
Видео
Идентификатор : 1
Формат : AVC
Формат/Информация : Advanced Video Codec
Профиль формата : [url=mailto:High@L3.1]High@L3.1[/url]
Параметр CABAC формата : Нет
Параметр ReFrames формата : 2 кадра
Идентификатор кодека : V_MPEG4/ISO/AVC
Продолжительность : 21 м.
Битрейт : 3657 Кбит/сек
Ширина : 1280 пикселей
Высота : 720 пикселей
Соотношение сторон : 16:9
Частота кадров : 23,976 кадра/сек
Цветовое пространство : YUV
Субдискретизация насыщенности : 4:2:0
Битовая глубина : 8 бит
Тип развёртки : Прогрессивная
Бит/(Пиксели*Кадры) : 0.166
Размер потока : 558 Мбайт (85%)
Язык : English
Default : Да
Forced : Нет
Основные цвета : BT.709-5, BT.1361, IEC 61966-2-4, SMPTE RP177
Характеристики трансфера : BT.709-5, BT.1361
Коэффициенты матрицы : BT.709-5, BT.1361, IEC 61966-2-4 709, SMPTE RP177
Аудио #1
Идентификатор : 2
Формат : AC-3
Формат/Информация : Audio Coding 3
Расширение режима : CM (complete main)
Идентификатор кодека : A_AC3
Продолжительность : 21 м.
Вид битрейта : Постоянный
Битрейт : 192 Кбит/сек
Каналы : 2 канала
Расположение каналов : Front: L R
Частота : 48,0 КГц
Битовая глубина : 16 бит
Метод сжатия : С потерями
Размер потока : 29,3 Мбайт (4%)
Язык : Russian
Default : Да
Forced : Нет
Аудио #2
Идентификатор : 3
Формат : AC-3
Формат/Информация : Audio Coding 3
Расширение режима : CM (complete main)
Идентификатор кодека : A_AC3
Продолжительность : 21 м.
Вид битрейта : Постоянный
Битрейт : 384 Кбит/сек
Каналы : 6 каналов
Расположение каналов : Front: L C R, Side: L R, LFE
Частота : 48,0 КГц
Битовая глубина : 16 бит
Метод сжатия : С потерями
Размер потока : 58,6 Мбайт (9%)
Язык : English
Default : Нет
Forced : Нет
Текст #1
Идентификатор : 4
Формат : UTF-8
Идентификатор кодека : S_TEXT/UTF8
Идентификатор кодека/Информация : UTF-8 Plain Text
Язык : Russian
Default : Нет
Forced : Нет
Текст #2
Идентификатор : 5
Формат : UTF-8
Идентификатор кодека : S_TEXT/UTF8
Идентификатор кодека/Информация : UTF-8 Plain Text
Язык : English
Default : Нет
Forced : Нет
Скриншоты:
           
Вне форума [Профиль] [ЛС]
Показать сообщения:    
Ответить на тему

Текущее время: Сегодня 22:27

Часовой пояс: GMT + 3



Вы не можете начинать темы
Вы не можете отвечать на сообщения
Вы не можете редактировать свои сообщения
Вы не можете удалять свои сообщения
Вы не можете голосовать в опросах
Вы не можете прикреплять файлы к сообщениям
Вы не можете скачивать файлы