Сегодня идет свободное скачивание без начисления Download

Живая мишень / Human Target (2010) WEB-DLRip [720p] (1 сезон, 12 серий из 12)

Ответить на тему
 
Автор
Сообщение

UndegraundMen ®

Стаж: 5 лет 3 месяца

Сообщений: 25871

Торрент-статистика

Пост 03-Июн-2013 04:06

[Цитировать]

Живая мишень / Human Target (2010) WEB-DLRip [720p] (1 сезон, 12 серий из 12)- Русское название: Живая мишень
Оригинальное название: Human Target
Год выпуска: 2010
Жанр: Боевик, Криминал, Приключения
Страна: США
Перевод: Дублированный РенТВ
Вид субтитров: Вшитые отключаемые
Язык субтитров: русский, английский
Режиссер: Стив Бойум, Пол А. Эдвардс, Питер Лоэр
Актеры: Марк Вэлли, Чи МакБрайд, Джеки Эрл Хейли, Индира Варма, Джанет Монтгомери, Ленни Джеймс
Описание фильма:
Только храбрый и самоотверженный человек может стать живой мишенью для того, чтобы спасти жизнь другому.
Human Target — основанная на одноименном комиксе экшн-драма, главный герой которой — Кристофер Чэнс, единственный в своем роде частный охранник.
Называть его можно как угодно — защитником, охранником или телохранителем, но для Чэнса главное одно — спасти жизнь своего клиента.
В этом ему помогают его бизнес-партнер Уинстон и фрилансер Герреро. В каждом деле Кристофер становится на линию огня, и пытается спасти клиента, раскрывая тайны заговора.
Во время каждого дела мы немного узнаем и о самом Чэнсе. Знает ли кто-нибудь, кто такой этот Кристофер Чэнс и какие секреты похоронены у него в прошлом? Что заставляет его каждый раз становиться живой мишенью?

Дата мировой премьеры: 15 января 2010
Релиз группа: MediaClub
Продолжительность: 12 х ~00:44:00
Качество видео: WEB-DLRip
Видеокодек: MPEG-4 AVC/H.264
Битрейт видео: ~4593 kb/s
Размер кадра: 1280х720
Аудио #1: AC3 2 ch, 192 kb/s (дубляж)
Аудио #2: AC3 6 ch, 640 kb/s (оригинал)

Список серий:

1. Пилотная серия / Pilot
2. Перемотка / Rewind
3. Переполох в Посольстве / Embassy Row
4. Убежище / Sanctuary
5. Погоня / Run
6. Под Замком / Lockdown
7. Спасение и Рекламация / Salvage & Reclamation
8. Баптист / Baptiste
9. Козёл Отпущения / Corner Man
10. Танарак / Tanarak
11. Виктория / Victoria
12. Кристофер Ченс / Christopher Chance

MediaInfo 1 серии

Формат : Matroska
Версия формата : Version 4 / Version 2
Размер файла : 1,67 Гбайт
Продолжительность : 43 м.
Общий поток : 5535 Кбит/сек
Дата кодирования : UTC 2010-02-22 21:41:31
Программа кодирования : mkvmerge v5.8.0 ('No Sleep / Pillow') built on Nov 13 2012 19:43:22
Библиотека кодирования : libebml v1.3.0 + libmatroska v1.4.0
Видео
Идентификатор : 1
Формат : AVC
Формат/Информация : Advanced Video Codec
Профиль формата : [url=mailto:High@L4.1]High@L4.1[/url]
Параметр CABAC формата : Да
Параметр ReFrames формата : 8 кадров
Режим смешивания : Header stripping
Идентификатор кодека : V_MPEG4/ISO/AVC
Продолжительность : 43 м.
Битрейт : 4593 Кбит/сек
Ширина : 1280 пикселей
Высота : 720 пикселей
Соотношение сторон : 16:9
Частота кадров : 23,976 кадра/сек
Цветовое пространство : YUV
Субдискретизация насыщенности : 4:2:0
Битовая глубина : 8 бит
Тип развёртки : Прогрессивная
Бит/(Пиксели*Кадры) : 0.208
Размер потока : 1,39 Гбайт (83%)
Библиотека кодирования : x264 core 110 r1804kMod e89c4cf
Настройки программы : cabac=1 / ref=8 / deblock=1:-1:-1 / analyse=0x3:0x133 / me=umh / subme=10 / psy=1 / psy_rd=0.90:0.10 / mixed_ref=1 / me_range=32 / chroma_me=1 / trellis=2 / 8x8dct=1 / cqm=0 / deadzone=21,11 / fast_pskip=0 / chroma_qp_offset=-3 / threads=6 / sliced_threads=0 / nr=0 / decimate=0 / interlaced=0 / constrained_intra=0 / bframes=10 / b_pyramid=2 / b_adapt=2 / b_bias=0 / direct=1 / weightb=1 / open_gop=0 / weightp=2 / keyint=250 / keyint_min=23 / scenecut=40 / intra_refresh=0 / rc_lookahead=40 / rc=crf / mbtree=0 / crf=18.0000 / qcomp=0.60 / qpmin=0 / qpmax=51 / qpstep=4 / vbv_maxrate=50000 / vbv_bufsize=62500 / crf_max=0.0 / ip_ratio=1.40 / pb_ratio=1.30 / aq=1:1.00 / nal_hrd=none
Язык : English
Default : Нет
Forced : Нет
Основные цвета : BT.709-5, BT.1361, IEC 61966-2-4, SMPTE RP177
Характеристики трансфера : BT.709-5, BT.1361
Коэффициенты матрицы : BT.709-5, BT.1361, IEC 61966-2-4 709, SMPTE RP177
Аудио #1
Идентификатор : 2
Формат : AC-3
Формат/Информация : Audio Coding 3
Расширение режима : CM (complete main)
Параметр Endianness формата : Big
Режим смешивания : Header stripping
Идентификатор кодека : A_AC3
Продолжительность : 43 м.
Вид битрейта : Постоянный
Битрейт : 192 Кбит/сек
Каналы : 2 канала
Расположение каналов : Front: L R
Частота : 48,0 КГц
Битовая глубина : 16 бит
Метод сжатия : С потерями
Размер потока : 59,4 Мбайт (3%)
Язык : Russian
Default : Да
Forced : Нет
Аудио #2
Идентификатор : 3
Формат : AC-3
Формат/Информация : Audio Coding 3
Расширение режима : CM (complete main)
Параметр Endianness формата : Big
Режим смешивания : Header stripping
Идентификатор кодека : A_AC3
Продолжительность : 43 м.
Вид битрейта : Постоянный
Битрейт : 640 Кбит/сек
Каналы : 6 каналов
Расположение каналов : Front: L C R, Side: L R, LFE
Частота : 48,0 КГц
Битовая глубина : 16 бит
Метод сжатия : С потерями
Размер потока : 198 Мбайт (12%)
Язык : English
Default : Нет
Forced : Нет
Текст #1
Идентификатор : 4
Формат : ASS
Идентификатор кодека : S_TEXT/ASS
Идентификатор кодека/Информация : Advanced Sub Station Alpha
Метод сжатия : Без потерь
Заголовок : Forced
Язык : Russian
Default : Да
Forced : Нет
Текст #2
Идентификатор : 5
Формат : UTF-8
Идентификатор кодека : S_TEXT/UTF8
Идентификатор кодека/Информация : UTF-8 Plain Text
Язык : Russian
Default : Нет
Forced : Нет
Текст #3
Идентификатор : 6
Формат : UTF-8
Идентификатор кодека : S_TEXT/UTF8
Идентификатор кодека/Информация : UTF-8 Plain Text
Язык : English
Default : Нет
Forced : Нет
Скриншоты:
         
Вне форума [Профиль] [ЛС]
Показать сообщения:    
Ответить на тему

Текущее время: Сегодня 00:05

Часовой пояс: GMT + 3



Вы не можете начинать темы
Вы не можете отвечать на сообщения
Вы не можете редактировать свои сообщения
Вы не можете удалять свои сообщения
Вы не можете голосовать в опросах
Вы не можете прикреплять файлы к сообщениям
Вы не можете скачивать файлы