Сегодня идет свободное скачивание без начисления Download

Безумцы / Mad Men (6 сезон, 7 серий из 13) (2013) WEB-DL 720p (Кубик в Кубе)

Ответить на тему
 
Автор
Сообщение

UndegraundMen ®

Стаж: 5 лет 6 месяцев

Сообщений: 25860

Торрент-статистика

Пост 02-Июн-2013 08:35

[Цитировать]

Безумцы / Mad Men (6 сезон, 7 серий из 13) (2013) WEB-DL 720p (Кубик в Кубе)- Русское название: Безумцы
Оригинальное название: Mad Men
Год выпуска: 2013
Жанр: Драма
Продолжительность: ~00:45:00 серия
Перевод: Двуголосый закадровый, профессиональный
Озвучка / Автор перевода: Кубик в Кубе
Язык субтитров: Английские

Режиссер: Фил Абрахам, Джон Слэттери
Актеры: Джон Хэмм, Элизабет Мосс, Винсент Картайзер, Джэньюэри Джонс, Кристина Хендрикс, Брайан Бэтт, Аарон Стэтон, Рич Соммер, Джон Слэттери
Описание фильма:
США, 60-е годы ХХ века. В центре повествования — работа рекламного Агентства «Стерлинг-Купер», расположенного на престижной Медисон-авеню в центре Нью-Йорка, и жизнь его креативного директора — мастера манипуляций и интриг — Дона Дрейпера. Находясь на вершине карьеры, он противостоит конкурентам, стараясь сберечь своe положение в компании. Служебные и семейные перипетии Дона и его коллег происходят на фоне глобальных событий в жизни американского общества тех лет…
Качество видео: WEB-DL 720p
Сэмпл: Скачать
Видеокодек: MPEG-4 AVC/H.264
Аудиокодек: AC3
Видео: 1280x718 at 23.976 fps, MPEG-4 AVC, ~3900 kbps avg, ~0.174 b/pixel
Аудио #1: Russian 48 kHz, Dolby Digital 5.1, ~384.00 kbps avg |Двухголосый закадровый, Кубик в Кубе|
Аудио #2: English 48 kHz, Dolby Digital 5.1, ~384.00 kbps avg |Oригинал|

Даты выхода серий

6 - 1 The Doorway, Part 1 08.04.2013
6 - 2 The Doorway, Part 2 08.04.2013
6 - 3 The Collaborators 15.04.2013
6 - 4 To Have and to Hold 22.04.2013
6 - 5 The Flood 29.04.2013
6 - 6 TBA 06.05.2013
6 - 7 TBA 13.05.2013
6 - 8 TBA 20.05.2013
...

MediaInfo

Complete name : Mad.Men.s06e01.rus.eng.720p.mkv
Format : Matroska
Format version : Version 4 / Version 2
File size : 1.56 GiB
Duration : 47mn 28s
Overall bit rate : 4 701 Kbps
Encoded date : UTC 2013-04-11 15:00:43
Writing application : mkvmerge v6.0.0 ('Coming Up For Air') built on Jan 20 2013 09:52:00
Writing library : libebml v1.3.0 + libmatroska v1.4.0
Video
ID : 1
Format : AVC
Format/Info : Advanced Video Codec
Format profile : [url=mailto:High@L3.1]High@L3.1[/url]
Format settings, CABAC : No
Format settings, ReFrames : 2 frames
Codec ID : V_MPEG4/ISO/AVC
Duration : 47mn 28s
Bit rate : 3 839 Kbps
Width : 1 280 pixels
Height : 718 pixels
Display aspect ratio : 16:9
Frame rate mode : Constant
Frame rate : 23.976 fps
Color space : YUV
Chroma subsampling : 4:2:0
Bit depth : 8 bits
Scan type : Progressive
Bits/(Pixel*Frame) : 0.174
Stream size : 1.27 GiB (82%)
Default : Yes
Forced : No
Color primaries : BT.709
Transfer characteristics : BT.709
Matrix coefficients : BT.709
Audio #1
ID : 2
Format : AC-3
Format/Info : Audio Coding 3
Mode extension : CM (complete main)
Format settings, Endianness : Big
Codec ID : A_AC3
Duration : 47mn 28s
Bit rate mode : Constant
Bit rate : 384 Kbps
Channel(s) : 6 channels
Channel positions : Front: L C R, Side: L R, LFE
Sampling rate : 48.0 KHz
Bit depth : 16 bits
Compression mode : Lossy
Stream size : 130 MiB (8%)
Language : Russian
Default : Yes
Forced : No
Audio #2
ID : 3
Format : AC-3
Format/Info : Audio Coding 3
Mode extension : CM (complete main)
Format settings, Endianness : Big
Codec ID : A_AC3
Duration : 47mn 28s
Bit rate mode : Constant
Bit rate : 384 Kbps
Channel(s) : 6 channels
Channel positions : Front: L C R, Side: L R, LFE
Sampling rate : 48.0 KHz
Bit depth : 16 bits
Compression mode : Lossy
Delay relative to video : 22ms
Stream size : 130 MiB (8%)
Language : English
Default : No
Forced : No
Text
ID : 4
Format : UTF-8
Codec ID : S_TEXT/UTF8
Codec ID/Info : UTF-8 Plain Text
Language : English
Default : No
Forced : No

Внимание! Раздача ведётся путём добавления новых серий

Внимание! Раздача ведётся путём добавления новых серий; при каждом добавлении создаётся новый торрент.
Чтобы начать докачку новой серии, пользователям необходимо сделать следующее:
1. Остановить скачивание;
2. Удалить старый торрент у себя из клиента (старые серии удалять не надо);
3. Скачать новый торрент и запустить его у себя в клиенте вместо старого, при этом указать клиенту путь в старую папку куда и должно происходить скачивание новых серий. Ваш клиент при этом должен произвести хеширование (проверку) старой папки и будет докачивать только те серии, которых у вас ещё нет. Старые серии при этом не удаляются, а продолжают раздаваться! Eсли вы уже удалили старые серии, то предотвратить повторную закачку старых серий можно, отжав галочку в соответствующих местах при запуске нового торрента.
Последнее обновление 01.06.2013Скриншоты:            
Вне форума [Профиль] [ЛС]
Показать сообщения:    
Ответить на тему

Текущее время: Сегодня 20:50

Часовой пояс: GMT + 3



Вы не можете начинать темы
Вы не можете отвечать на сообщения
Вы не можете редактировать свои сообщения
Вы не можете удалять свои сообщения
Вы не можете голосовать в опросах
Вы не можете прикреплять файлы к сообщениям
Вы не можете скачивать файлы