Сегодня идет свободное скачивание без начисления Download

Болота (Глейдс) / The Glades (2011) WEB-DLRip (2 сезон: 1-13 серии из 13) (veryserg)

Ответить на тему
 
Автор
Сообщение

UndegraundMen ®

Стаж: 5 лет 8 месяцев

Сообщений: 25860

Торрент-статистика

Пост 02-Июн-2013 08:35

[Цитировать]

Болота (Глейдс) / The Glades (2011) WEB-DLRip (2 сезон: 1-13 серии из 13) (veryserg)- Русское название: Болота (Глейдс)
Оригинальное название: The Glades
Год выпуска: 2011
Жанр: Триллер, Драма
Перевод: Двуголосый закадровый, любительский - veryserg
Озвучка / Автор перевода: Ева и Вячеслав Айсберг/Дарья Никула

Режиссер: Гари А. Рэндолл, Ли Роуз
Актеры: Мэтт Пассмор, Киле Санчез, Карлос Гомес, Урия Шелтон, Джордан Уолл, Мишель Херд
Описание фильма:
Джим Лонгворт, детектив из отдела убийств производит неизгладимое впечатление на женщин, умен и красив, но чуточку слишком труден в общении. Ему пришлось покинуть Чикаго после неприятного случая, когда капитан полиции, его начальник подстрелил его, заподозрив роман между ним и его женой. Роман с женой начальника существовал только в воображении капитана полиции, но неприятности ожидали Джима самые настоящие. Покинув Чикаго не по доброй воле, он осел в городке Палм Глейдс, где жизнь похожа на тихое болото, обжигаемое лучами бесконечного солнца Флориды.
Продолжительность: 13 х ~ 00:44:00
Качество видео: WEB-DLRip
Видеокодек: Xvid
Битрейт видео: ~1200 kb/s
Размер кадра: 720x400
Аудиокодек: MP3, 2 ch
Аудио Rus: MP3, 128 kb/s, 48,0 kHz |Veryserg|
Аудио Eng: MP3, 128 kb/s, 48,0 kHz |Original|
Скачать семпл
-

MI

Общее
Полное имя : C:\Users\Артём\Desktop\запись\The.Glades.s02.WEB-DLRip.Rus.Eng.To4ka.TV\The.Glades.s02e01.WEB-DLRip.Rus.Eng.To4ka.TV.avi
Формат : AVI
Формат/Информация : Audio Video Interleave
Размер файла : 450 Мбайт
Продолжительность : 44 м.
Общий поток : 1420 Кбит/сек
Программа кодирования : VirtualDubMod 1.6.0.0 SURROUND (build 2560/release)
Библиотека кодирования : VirtualDubMod build 2560/release
Видео
Идентификатор : 0
Формат : MPEG-4 Visual
Профиль формата : Advanced Simple@L5
Параметр BVOP формата : 1
Параметр QPel формата : Нет
Параметр GMC формата : Без точки перехода
Параметр матрицы формата : Default (H.263)
Идентификатор кодека : XVID
Идентификатор кодека/Подсказка : XviD
Продолжительность : 44 м.
Битрейт : 1150 Кбит/сек
Ширина : 720 пикселей
Высота : 400 пикселей
Соотношение сторон : 16:9
Частота кадров : 23,976 кадра/сек
Цветовое пространство : YUV
Субдискретизация насыщенности : 4:2:0
Битовая глубина : 8 бит
Тип развёртки : Прогрессивная
Метод сжатия : С потерями
Бит/(Пиксели*Кадры) : 0.167
Размер потока : 364 Мбайт (81%)
Библиотека кодирования : XviD 1.2.1 (UTC 2008-12-04)
Аудио #1
Идентификатор : 1
Формат : MPEG Audio
Версия формата : Version 1
Профиль формата : Layer 3
Режим : Joint stereo
Расширение режима : MS Stereo
Идентификатор кодека : 55
Идентификатор кодека/Подсказка : MP3
Продолжительность : 44 м.
Вид битрейта : Постоянный
Битрейт : 128 Кбит/сек
Каналы : 2 канала
Частота : 48,0 КГц
Метод сжатия : С потерями
Размер потока : 40,6 Мбайт (9%)
Выравнивание : Соединение по промежуткам
Продолжительность промежутка : 42 мс. (1,00 видеокадр)
Время предзагрузки промежутка : 504 мс.
Аудио #2
Идентификатор : 2
Формат : MPEG Audio
Версия формата : Version 1
Профиль формата : Layer 3
Режим : Joint stereo
Расширение режима : MS Stereo
Идентификатор кодека : 55
Идентификатор кодека/Подсказка : MP3
Продолжительность : 44 м.
Вид битрейта : Постоянный
Битрейт : 128 Кбит/сек
Каналы : 2 канала
Частота : 48,0 КГц
Метод сжатия : С потерями
Размер потока : 40,6 Мбайт (9%)
Выравнивание : Соединение по промежуткам
Продолжительность промежутка : 42 мс. (1,00 видеокадр)
Время предзагрузки промежутка : 504 мс.
Библиотека кодирования : LAME3.98r
Настройки программы : -m j -V 4 -q 2 -lowpass 17 -b 128
Скриншоты:        
   
Время раздачи: С 8:30 до 23:00 (до 10 скачавших)
Вне форума [Профиль] [ЛС]
Показать сообщения:    
Ответить на тему

Текущее время: Сегодня 12:47

Часовой пояс: GMT + 3



Вы не можете начинать темы
Вы не можете отвечать на сообщения
Вы не можете редактировать свои сообщения
Вы не можете удалять свои сообщения
Вы не можете голосовать в опросах
Вы не можете прикреплять файлы к сообщениям
Вы не можете скачивать файлы