Сегодня идет свободное скачивание без начисления Download

Гений (2 серии из 2) [Виктор Сергеев] (Комедия, Криминал, 1991) DVDRip

Ответить на тему
 
Автор
Сообщение

Omen ®

Стаж: 5 лет 9 месяцев

Сообщений: 184393

Торрент-статистика

Пост 01-Июн-2013 21:54

[Цитировать]

Гений (2 серии из 2) - Русское название: Гений
Год выпуска: 1991
Жанр: Комедия, Криминал
Описание фильма:
Герой фильма, в прошлом талантливый физик-электронщик, а ныне директор овощного магазина, имеет криминальное хобби. Его изобретательные и технические великолепные операции задевают интересы не только правоохранительных органов, но и кровожадных мафиозных структур.
Режиссер: Виктор Сергеев
Актеры: Александр Абдулов, Иннокентий Смоктуновский, Лариса Белогурова, Юрий Кузнецов, Валентина Талызина, Сергей Проханов, Анатолий Кузнецов, Альгис Матулёнис, Виктор Ильичев, Виктор Смирнов, Георгий Мартиросьян, Михаил Морозов, Лев Лемке, Виктор Сергеев, Нина Антонова
Продолжительность: 2 х ~ 01:15:00

Видеокодек: Xvid
Битрейт видео: ~ 1586 Кбит/сек, 1599 Кбит/сек
Размер кадра: 704x528
Качество видео: DVDRip
Аудиокодек: AC3, 6 ch
Битрейт аудио: 448 Кбит/с

MI:

Общее
Полное имя : D:\upload\Genij.(2.serii.iz.2).1991\Genij.(1.serija.iz.2).1991..avi
Формат : AVI
Формат/Информация : Audio Video Interleave
Размер файла : 1007 Мбайт
Продолжительность : 1 ч. 8 м.
Общий поток : 2057 Кбит/сек
Программа кодирования : VirtualDubMod 1.5.10.2 (build 2540/release)
Библиотека кодирования : VirtualDubMod build 2540/release
Видео
Идентификатор : 0
Формат : MPEG-4 Visual
Профиль формата : Advanced Simple@L5
Параметр BVOP формата : 1
Параметр QPel формата : Нет
Параметр GMC формата : Без точки перехода
Параметр матрицы формата : Default (MPEG)
Идентификатор кодека : XVID
Идентификатор кодека/Подсказка : XviD
Продолжительность : 1 ч. 8 м.
Битрейт : 1599 Кбит/сек
Ширина : 704 пикселя
Высота : 528 пикселей
Соотношение сторон : 4:3
Частота кадров : 25,000 кадров/сек
Цветовое пространство : YUV
Субдискретизация насыщенности : 4:2:0
Битовая глубина : 8 бит
Тип развёртки : Прогрессивная
Метод сжатия : С потерями
Бит/(Пиксели*Кадры) : 0.172
Размер потока : 783 Мбайт (78%)
Библиотека кодирования : XviD 1.2.1 (UTC 2008-12-04)
Аудио
Идентификатор : 1
Формат : AC-3
Формат/Информация : Audio Coding 3
Расширение режима : CM (complete main)
Параметр Endianness формата : Big
Идентификатор кодека : 2000
Продолжительность : 1 ч. 8 м.
Вид битрейта : Постоянный
Битрейт : 448 Кбит/сек
Каналы : 6 каналов
Расположение каналов : Front: L C R, Side: L R, LFE
Частота : 48,0 КГц
Битовая глубина : 16 бит
Метод сжатия : С потерями
Размер потока : 219 Мбайт (22%)
Выравнивание : Разделение по промежуткам
Продолжительность промежутка : 40 мс. (1,00 видеокадр)
Время предзагрузки промежутка : 500 мс.-Общее
Полное имя : D:\upload\Genij.(2.serii.iz.2).1991\Genij.(2.serija.iz.2).1991..avi
Формат : AVI
Формат/Информация : Audio Video Interleave
Размер файла : 1,20 Гбайт
Продолжительность : 1 ч. 24 м.
Общий поток : 2036 Кбит/сек
Программа кодирования : VirtualDubMod 1.5.10.2 (build 2540/release)
Библиотека кодирования : VirtualDubMod build 2540/release
Видео
Идентификатор : 0
Формат : MPEG-4 Visual
Профиль формата : Advanced Simple@L5
Параметр BVOP формата : 1
Параметр QPel формата : Нет
Параметр GMC формата : Без точки перехода
Параметр матрицы формата : Default (MPEG)
Идентификатор кодека : XVID
Идентификатор кодека/Подсказка : XviD
Продолжительность : 1 ч. 24 м.
Битрейт : 1586 Кбит/сек
Ширина : 704 пикселя
Высота : 528 пикселей
Соотношение сторон : 4:3
Частота кадров : 25,000 кадров/сек
Цветовое пространство : YUV
Субдискретизация насыщенности : 4:2:0
Битовая глубина : 8 бит
Тип развёртки : Прогрессивная
Метод сжатия : С потерями
Бит/(Пиксели*Кадры) : 0.171
Размер потока : 958 Мбайт (78%)
Библиотека кодирования : XviD 1.2.1 (UTC 2008-12-04)
Аудио
Идентификатор : 1
Формат : AC-3
Формат/Информация : Audio Coding 3
Расширение режима : CM (complete main)
Параметр Endianness формата : Big
Идентификатор кодека : 2000
Продолжительность : 1 ч. 23 м.
Вид битрейта : Постоянный
Битрейт : 448 Кбит/сек
Каналы : 6 каналов
Расположение каналов : Front: L C R, Side: L R, LFE
Частота : 48,0 КГц
Битовая глубина : 16 бит
Метод сжатия : С потерями
Размер потока : 266 Мбайт (22%)
Выравнивание : Разделение по промежуткам
Продолжительность промежутка : 41 мс. (1,02 видеокадр)
Время предзагрузки промежутка : 500 мс.

-

Рецензия, отзыв о фильме

Шикарное кино. «Папа, хочешь, я тебе ее в одну секунду сделаю?!», «Страна непуганных идиотов!», «Сидим, едим, пьем!» — да сколько их таких — разлетевшихся на цитаты фраз и выражений! Что ни говори, а «Гений» — это классика. Для меня А. Г. Абдулов — это Ненашев из этого фильма и Вася Лядащев из «Гардемаринов» — незабываемые образы — превосходно сыгранные роли. Это только навскидку, первое, что приходит в голову. Но, при всем уважении к актеру, убежден, что, будь фильм слабым и блеклым — спасти его было бы весьма проблематично. И наоборот — когда созданы все условия для работы — результат превосходит все ожидания.
Единственное, что мне никогда не нравилось в этом фильме — это выбор главной героини. Как-то не глянется она мне. Ни красоты особой в ней не вижу, ни, собственно, работы актерской какой-то достойной. Это, конечно, несколько смазывает общее впечатление каждый раз, как пересматриваю фильм. И, тем не менее, настолько хорош мужской «ансамбль», настолько удачным получился сценарий, что на такие мелочи просто не хочется отвлекаться. В конце-концов, могло быть и похуже. А так — ничего, сгодится. Общее впечатление, в любом случае, — восторг!
Andron
Скриншоты:
         
         
Вне форума [Профиль] [ЛС]
Похожие темы
Форум Тема Автор Торрент Отв. Посл. сообщение
./templates/default/images/folder_dl.gif Обучающее видео [Евгений Карташов] Lightroom-чародей [2013, RUS] Omen
1 | 0

0 | 1538

21

2013-05-06 13:08
Omen Последнее
./templates/default/images/folder_dl.gif Обучающее видео Евгений Карташов. Photoshop для фотографа 2013 [2013, Обучение обработки фотографий, RUS] (Видеоурок) Omen
1 | 0

0 | 3431

54

2013-12-28 11:06
Omen Последнее
./templates/default/images/folder_dl.gif Обучающее видео Евгений Воробьев | Основы студийной фотографии (2013) [WEB-DL] UndegraundMen
1 | 0

0 | 2308

27

2013-12-29 08:00
UndegraundMen Последнее
./templates/default/images/folder_dl.gif Обучающее видео [Россия] Евгений Карташов.Обнаженное тело. Секреты ретуши и тонировки 2014 [2014, RUS] Omen
1 | 0

0 | 2069

56

2014-05-07 23:00
Omen Последнее
./templates/default/images/folder_dl.gif Обучающее видео Евгений Карташов.Бюджетная фотостудия или секреты фотовспышек [2014, RUS] Omen
2 | 0

0 | 2746

82

2014-12-13 17:57
Omen Последнее
./templates/default/images/folder_dl.gif Обучающее видео Евгений Карташов.Сборник из 86 видеоуроков (2014) [2014, RUS] Omen
0 | 1

1 | 2845

0

2015-09-10 10:59
Антон1982 Последнее
./templates/default/images/folder_dl.gif Обучающее видео Зинаида Лукьянова и Евгений Попов | Видеоуроки Adobe Photoshop от Зинаиды Лукьяновой и Евгения Попова (2007-2015) [SWF] [Обновление от 10.09.2015] Omen
1 | 0

0 | 1685

37

2015-10-23 12:11
Omen Последнее
./templates/default/images/folder_dl.gif Обучающее видео Евгений Карташов | Секреты фотосъемки в обычной квартире + Бонус (2017) CamRip Omen
1 | 0

0 | 965

24

2016-03-09 06:59
Omen Последнее
./templates/default/images/folder_dl.gif Обучающее видео Евгений Попов | Настройка и оптимизация Windows 10 (2017) PCRec Omen
1 | 0

0 | 2324

56

2016-03-09 18:12
Omen Последнее
./templates/default/images/folder_dl.gif Психология, Тренинг, Саморазвитие Дмитрий Белостоцкий | Гений решений! (2014) [FB2, EPUB] }{@R0N
1 | 0

0 | 3981

6

2017-10-14 18:31
}{@R0N Последнее
Показать сообщения:    
Ответить на тему

Текущее время: Сегодня 21:41

Часовой пояс: GMT + 3



Вы не можете начинать темы
Вы не можете отвечать на сообщения
Вы не можете редактировать свои сообщения
Вы не можете удалять свои сообщения
Вы не можете голосовать в опросах
Вы не можете прикреплять файлы к сообщениям
Вы не можете скачивать файлы