Сегодня идет свободное скачивание без начисления Download

Остров Ненужных Мутантов / Spliced (Мэтт Фергюсон)[2010,Комедия] SATRip (Сезон 1, серий 26 из 26)

Ответить на тему
 
Автор
Сообщение

sashau ®

Пол:

Стаж: 5 лет 11 месяцев

Сообщений: 3569

Торрент-статистика

Пост 01-Июн-2013 12:58

[Цитировать]

Остров Ненужных Мутантов / Spliced - Русское название: Остров Ненужных Мутантов
Оригинальное название: Spliced
Год выпуска: 2010
Жанр: Комедия
Страна: Канада
Режиссер: Мэтт Фергюсон
Персонажи: Роб Стефанюк, Джо Пинг, Кэти Краун, Патрик МакКенна, Майк Кишш, Джули Лемье, Кедар Браун
Описание фильма:
Сериал, основанный на научно-фантастической истории Герберта Уэллса "Остров доктора Моро". Родившиеся в результате экспериментов с генной инженерией звери строят свое гражданское общество.

Перевод: Многоголосый закадровый, профессиональный
Озвучка / Автор перевода: |2x2| (Студия "Кипарис")
Вид субтитров: Отсутствуют
Продолжительность: 26 х ~00:22:00
Качество видео: SATRip
Видеокодек: DivX 5
Битрейт видео: ~ 1500 kb/s
Размер кадра: 704x528 (4:3)
Аудиокодек: MP3, 2.0 ch
Битрейт аудио: 192 kb/s

Список серий

01 Bowled Over + Stuck Together / Сраженные Боулингом + Обреченные на Дружбу
02 No Play For Princess + Cleaning Up / Для Принцессы Нет Игры + Большая Мойка
03 Outsmartered + Gordon / Сам Себя Перехитрил + Гордон
04 Fairly Odd Princesses + Brothers in Farms / Странные Феи Принцессы + Братья по Ферме
05 Roots + Two Arms Joe / Корни + Двурукий Джо
06 Honorary Freak + Come to the Dork Side / Почётный Мутант + Добро Пожаловать в Страну Дураков
07 Best Before Date + Stompabout / Срок Годности + Топотушки
08 Amazon + Juice / Амазонка + Сок
09 Stupid Means Never Having To Say I'm Sorry + Cube Whacked / Глупо Никогда не Просить Прощения + Разрушители Куба
10 Fuzzy's Great Journey + Octocataclysm / Большое Приключение Пушистика + Осмикошмар
11 Promises, Promises + There Will Be Stomp / Обещания, Обещания + Да Будет Топать
12 Taste of Friendship + Sugar Low / Вкус Дружбы + Без Сахара
13 Compu-Peri + Marzipan Meadows and the Kingdom of Adventure / Пери-Компьютер + Сумеречный Холодильник
14 The Mutants Who Cried Monster + Pink / Мутанты Призвавшие Монстра + Розовый
15 Livin' La Vida Lava + Mo' Mayo, Mo' Problems / Наслаждайтесь Славой + Майонезные Проблемы
16 Walkie-Talkie Spinesuckie + My Fair Sharkbunny / Бесхребетники с Воки-Токи + Мой Прекрасный Акулий Кролик
17 Pork Chop + Same Difference / Невоспитанный Свинтус + Никакой Разницы
18 Follow your Dreamworms + Of Masters and Minions / Следуй Своей Мечте + О Хозяевах и Слугах
19 Yetis Don't Care About Nothin! + Clones Don't Care 'Bout Nothin' Either / Йети Ничего не Волнует + И Клонов Ничего не Волнует
20 Whirrel Call + Nightmare on Condemned Street / Выбор Китабелки + Кошмар на Проклятой Улице
21 Nobody's Cult But Mine + Stomach on Strike / Не Сотвори Себе Кумира, Кроме Меня + Бунт Живота
22 Living Hellp + Sgt. Snuggums / Действенная Помощь + Сержант Снагамс
23 Helen + The Count Of Pinchy Crabbo / Хелен + Обвинение Неугомонного Краба
24 Jetpackin + Mole-sters In The Mist / Реактивный Ранец + Кромечки в Тумане
25 Mr. Wrinkles in Time + Bite, Shuffle And Moan / Мистер Вринклс Приходит Вовремя + Зомби-Эпопея
26 One Joe Wingus + Poosh and the Quest for the Blargy Parble / Джо и Крылатый + Пуш и Поиск Бларги Парбла

Mediainfo

Полное имя : D:\Мультики\Spliced.Season.1.DivX.2010.SATRip\02 No Play For Princess + Cleaning Up
Формат : AVI
Формат/Информация : Audio Video Interleave
Размер файла : 266 Мбайт
Продолжительность : 21 м.
Общий поток : 1701 Кбит/сек
Библиотека кодирования : VirtualDub build 32842/release
Видео
Идентификатор : 0
Формат : MPEG-4 Visual
Параметр BVOP формата : 1
Параметр QPel формата : Нет
Параметр GMC формата : Без точки перехода
Параметр матрицы формата : Default (H.263)
Режим смешивания : Сжатый битовый поток
Идентификатор кодека : DX50
Идентификатор кодека/Подсказка : DivX 5
Продолжительность : 21 м.
Битрейт : 1500 Кбит/сек
Ширина : 704 пикселя
Высота : 528 пикселей
Соотношение сторон : 4:3
Частота кадров : 25,000 кадров/сек
Цветовое пространство : YUV
Субдискретизация насыщенности : 4:2:0
Битовая глубина : 8 бит
Тип развёртки : Прогрессивная
Метод сжатия : С потерями
Бит/(Пиксели*Кадры) : 0.161
Размер потока : 234 Мбайт (88%)
Библиотека кодирования : DivX 6.8.5 (UTC 2009-08-20)
Аудио
Идентификатор : 1
Формат : MPEG Audio
Версия формата : Version 1
Профиль формата : Layer 3
Режим : Joint stereo
Идентификатор кодека : 55
Идентификатор кодека/Подсказка : MP3
Продолжительность : 21 м.
Вид битрейта : Постоянный
Битрейт : 192 Кбит/сек
Каналы : 2 канала
Частота : 48,0 КГц
Метод сжатия : С потерями
Размер потока : 30,0 Мбайт (11%)
Выравнивание : Разделение по промежуткам
Продолжительность промежутка : 40 мс. (1,00 видеокадр)
Время предзагрузки промежутка : 500 мс.
Скриншоты:
       
Вне форума [Профиль] [ЛС]
Похожие темы
Форум Тема Автор Торрент Отв. Посл. сообщение
./templates/default/images/folder_dl.gif Отечественные cериалы Одессит / Серии: 1-4 из 4 (Игорь Копылов) [2013, Остросюжетный сериал, SATRip-AVC] Omen
1 | 0

0 | 610

10

2013-10-11 03:03
Omen Последнее
./templates/default/images/folder_dl.gif Обучающее видео Как построить дом и заработать 1 000 000 рублей / Как построить дом и заработать 1 000 000 рублей. Бизнес-Видеокурс (2013) [2013, Бизнес, Заработок, Умелые ручки, PDTVRip, RUS] (Видеоурок) Omen
0 | 1

0 | 555

14

2014-04-17 14:58
Omen Последнее
./templates/default/images/folder_dl.gif Фантастика, фэнтези, ужасы, мистика Круз Андрей - ВЕТЕР НАД ОСТРОВАМИ книга 1 [Дмитрий Хазанович, (ЛИ), 2014 г., 192 kbps, MP3] Omen
1 | 0

0 | 574

8

2014-08-02 23:02
Omen Последнее
./templates/default/images/folder_dl.gif Фантастика, фэнтези, ужасы, мистика Круз Андрей - ВЕТЕР НАД ОСТРОВАМИ книга 2. Близится Буря [Дмитрий Хазанович, (ЛИ), 2014 г., 192 kbps, MP3] Omen
1 | 0

0 | 490

7

2014-12-15 17:39
Omen Последнее
./templates/default/images/folder_dl.gif Сатира, Юмор В. Попов (сост.) | Альманах всемирного остроумия №1 (2015) [FB2] Aikivas
1 | 0

0 | 484

2

2015-08-16 20:59
Aikivas Последнее
./templates/default/images/folder_dl.gif Компьютерная литература Луис Педро Коэльо, Вилли Ричард - Построение систем машинного обучения на языке Python [2016, PDF, RUS] Omen
1 | 0

0 | 290

3

2016-02-07 21:00
Omen Последнее
./templates/default/images/folder_dl.gif Обучающее видео Специалист | Построение системы безопасности персональных данных в организации (2015) PCRec Omen
1 | 0

0 | 827

30

2016-05-01 12:01
Omen Последнее
Показать сообщения:    
Ответить на тему

Текущее время: Сегодня 20:19

Часовой пояс: GMT + 3



Вы не можете начинать темы
Вы не можете отвечать на сообщения
Вы не можете редактировать свои сообщения
Вы не можете удалять свои сообщения
Вы не можете голосовать в опросах
Вы не можете прикреплять файлы к сообщениям
Вы не можете скачивать файлы