Сегодня идет свободное скачивание без начисления Download

Маша и медведь. Сладкая жизнь. Серия 33 (2013) SATRip

Ответить на тему
 
Автор
Сообщение

Omen ®

Стаж: 5 лет

Сообщений: 190529

Торрент-статистика

Пост 01-Июн-2013 08:26

[Цитировать]

Маша и медведь. Сладкая жизнь. Серия 33 - Режиссер / Телекомпания: Россия
Год выпуска: 2013
Жанр: Компьютерная анимация, Детский
Описание:
Мультсериал про девочку Машу, которая никому не дает покоя, и в первую очередь - своему другу Медведю.
Мультик добрый, веселый, а по качеству намного опережает многие отечественные 3D-мультфильмы, да и некоторые западные 3D мультсериалы.
Сериал показывается в "Спокойной ночи, малыши".
Цель сериала «Маша и Медведь» проста и вместе с тем актуальна - попытаться донести до ребенка вечные истины в понятной и занятной форме, представить мир в его многообразии, выявить позитивные стороны в любой ситуации. Тактично объяснить логику действий в различных проблемных ситуациях. В ненавязчивой форме помочь в борьбе с собственными слабостями. Показать человеческие недостатки и высмеять их, не оскорбляя ничьего достоинства.
Формат - комедийный детский сериал.
Сериал рассчитан в первую очередь на детскую аудиторию (от 3 до 9 лет) и поэтому форма изложения материала будет адаптирована для детского восприятия, но не будет чрезмерно упрощенной. Сериал планируется действительно семейным, интересным для всех возрастов, чтобы взрослые могли посмеяться над приключениями Маши и Медведя, вспомнив собственное детство.
Благодаря тому, что каждая серия является законченной историей с достоверным видеорядом, у зрителей возникает ощущение, что персонажи и их мир действительно существует параллельно с нашим (при этом принцип завершенности каждой серии позволяет комбинировать их в любой последовательности, так чтобы зритель мог понимать и воспринимать сериал, даже пропустив его первые эпизоды).
Режиссер: Олег Кузовков, Владислав Байрамгулов
Персонажи: Алина Кукушкина, Эдуард Назаров, Борис Кутневич
Продолжительность: 00:06:12
Видеокодек: XviD
Битрейт видео: ~1499 кбит/сек
Размер кадра: 720 х 400
Качество видео: SATRip
Аудиокодек: MP3, 2 ch
Битрейт аудио: 128 кбит/сек

MediaInfo

Формат : AVI
Формат/Информация : Audio Video Interleave
Размер файла : 72,7 Мбайт
Продолжительность : 6 м. 12 с.
Общий поток : 1637 Кбит/сек
Программа кодирования : VirtualDubMod 1.5.10.3 | www.virtualdub-fr.org || (build 2550/release)
Библиотека кодирования : VirtualDub build 32842/release
Видео
Идентификатор : 0
Формат : MPEG-4 Visual
Профиль формата : Advanced Simple@L5
Параметр BVOP формата : 2
Параметр QPel формата : Нет
Параметр GMC формата : Без точки перехода
Параметр матрицы формата : Default (MPEG)
Идентификатор кодека : XVID
Идентификатор кодека/Подсказка : XviD
Продолжительность : 6 м. 12 с.
Битрейт : 1499 Кбит/сек
Ширина : 720 пикселей
Высота : 400 пикселей
Соотношение сторон : 16:9
Частота кадров : 25,000 кадров/сек
Цветовое пространство : YUV
Субдискретизация насыщенности : 4:2:0
Битовая глубина : 8 бит
Тип развёртки : Прогрессивная
Метод сжатия : С потерями
Бит/(Пиксели*Кадры) : 0.208
Размер потока : 66,5 Мбайт (92%)
Библиотека кодирования : XviD 63
Аудио
Идентификатор : 1
Формат : MPEG Audio
Версия формата : Version 1
Профиль формата : Layer 3
Идентификатор кодека : 55
Идентификатор кодека/Подсказка : MP3
Продолжительность : 6 м. 12 с.
Вид битрейта : Постоянный
Битрейт : 128 Кбит/сек
Каналы : 2 канала
Частота : 48,0 КГц
Метод сжатия : С потерями
Размер потока : 5,68 Мбайт (8%)
Выравнивание : Соединение по промежуткам
Продолжительность промежутка : 40 мс. (1,00 видеокадр)
Время предзагрузки промежутка : 504 мс.
Библиотека кодирования : LAME3.98r
Настройки программы : -m s -V 4 -q 0 -lowpass 17 -b 128
Скриншоты:          
Вне форума [Профиль] [ЛС]
Показать сообщения:    
Ответить на тему

Текущее время: Сегодня 00:59

Часовой пояс: GMT + 3



Вы не можете начинать темы
Вы не можете отвечать на сообщения
Вы не можете редактировать свои сообщения
Вы не можете удалять свои сообщения
Вы не можете голосовать в опросах
Вы не можете прикреплять файлы к сообщениям
Вы не можете скачивать файлы