Сегодня идет свободное скачивание без начисления Download

Правительство / Borgen (Сезон 2, серии 01 из 10) (2011) BDRip (BaibaKo) (обновляемая)

Ответить на тему
 
Автор
Сообщение

UndegraundMen ®

Стаж: 5 лет 6 месяцев

Сообщений: 25861

Торрент-статистика

Пост 31-Май-2013 03:02

[Цитировать]

Правительство / Borgen (Сезон 2, серии 01 из 10) (2011)
BDRip (BaibaKo) (обновляемая)
- Русское название: Правительство
Оригинальное название: Borgen
Год выпуска: 2011
Производство: Дания
Жанр: политика, триллер, драма
Продолжительность: ~ 00:59:00 серия
Перевод: Профессиональный (многоголосый, закадровый) - BaibaKo
Режиссер: Миккел Норгаард, Аннетт К. Олесен, Луиз Фридберг
Актеры: Сидсе Бабетт Кнудсен, Биргитте Йорт Серенсен, Йохан Филип Асбек, Микаэль Биркьер, Эмиль Поулсен Дам, Томас Левин, Сорен Мэллинг, Андерс Юль-Описание фильма:
Правительство - датский политический триллер от продюсеров "Убийства" (Forbrydelsen). Лидер умеренной партии Биргитте Нюборг становится первой женщиной премьер-министром Дании. Во время предвыборной кампании она ошарашила своего советника и политтехнолога Каспера Юла тем, что отказалась обнародовать компромат на премьера, одела не то платье на теледебаты, полностью отошла от заготовленной речи и... победила! Далее Биргитте предстоит самое сложное - удержать власть в водовороте интриг, политических торгов, манипуляций в СМИ и при этом остаться честной и полностью следовать своим принципам.-
Сэмпл: -Качество: BDRip
Формат: avi
Видео: MPEG-4 XviD, 1500 Кбит/сек, 720x320, 25,000 кадров/сек
Аудио Rus: MPEG Audio MP3, 2 канала, 48,0 КГц, 192 Кбит/сек
Аудио Dan: MPEG Audio MP3, 2 канала, 48,0 КГц, 192 Кбит/сек
Релиз-группа:
Автор перевода: Lub_a
Озвучка: Мортиция, Юлия Котурбаш, Алексей Кузнецов и Владимир Курдов.
Монтаж: Павел Дежин

MediaInfo

Полное имя : F:\Сериал\раздача\Borgen.s02\Borgen.s02e01.BDRip.XviD.Rus.Dan.BaibaKo.avi
Формат : AVI
Формат/Информация : Audio Video Interleave
Размер файла : 794 Мбайт
Продолжительность : 58 м.
Общий поток : 1898 Кбит/сек
Программа кодирования : VirtualDubMod 1.5.10.2 (build 2542/release)
Библиотека кодирования : VirtualDubMod build 2542/release
Видео
Идентификатор : 0
Формат : MPEG-4 Visual
Профиль формата : Advanced Simple@L5
Параметр BVOP формата : 2
Параметр QPel формата : Нет
Параметр GMC формата : Без точки перехода
Параметр матрицы формата : Default (H.263)
Идентификатор кодека : XVID
Идентификатор кодека/Подсказка : XviD
Продолжительность : 58 м.
Битрейт : 1500 Кбит/сек
Ширина : 720 пикс.
Высота : 320 пикс.
Соотношение сторон : 2,25:1
Частота кадров : 25,000 кадр/сек
Цветовое пространство : YUV
Подвыборка цветности : 4:2:0
Битовая глубина : 8 бит
Тип развёртки : Прогрессивная
Метод сжатия : С потерями
Бит/(Пиксели*Кадры) : 0.260
Размер потока : 627 Мбайт (79%)
Библиотека кодирования : XviD 1.2.1 (UTC 2008-12-04)
Аудио #1
Идентификатор : 1
Формат : MPEG Audio
Версия формата : Version 1
Профиль формата : Layer 3
Режим : Joint stereo
Расширение режима : MS Stereo
Идентификатор кодека : 55
Идентификатор кодека/Подсказка : MP3
Продолжительность : 58 м.
Вид битрейта : Постоянный
Битрейт : 192 Кбит/сек
Каналы : 2 канала
Частота : 48,0 КГц
Метод сжатия : С потерями
Размер потока : 80,3 Мбайт (10%)
Выравнивание : Соединение по промежуткам
Продолжительность промежутка : 40 мс. (1,00 видеокадр)
Время предзагрузки промежутка : 504 ms
Библиотека кодирования : LAME3.99r
Настройки программы : -m j -V 4 -q 2 -lowpass 18.6 -b 192
Аудио #2
Идентификатор : 2
Формат : MPEG Audio
Версия формата : Version 1
Профиль формата : Layer 3
Режим : Joint stereo
Расширение режима : MS Stereo
Идентификатор кодека : 55
Идентификатор кодека/Подсказка : MP3
Продолжительность : 58 м.
Вид битрейта : Постоянный
Битрейт : 192 Кбит/сек
Каналы : 2 канала
Частота : 48,0 КГц
Метод сжатия : С потерями
Размер потока : 80,3 Мбайт (10%)
Выравнивание : Соединение по промежуткам
Продолжительность промежутка : 40 мс. (1,00 видеокадр)
Время предзагрузки промежутка : 504 ms
Библиотека кодирования : LAME3.99r
Настройки программы : -m j -V 4 -q 2 -lowpass 18.6 -b 192
-Скриншоты:
       
       
-

Список серий

01 - 89 тысяч детей /89.000 børn

-

Внимание! Раздача ведётся путём добавления новых серий

Внимание! Раздача ведётся путём добавления новых серий; при каждом добавлении создётся новый торрент. Чтобы начать докачку новой серии, пользователям необходимо сделать следующее:
(1) остановить скачивание,
(2) удалить старый торрент у себя из клиента (старые серии удалять не надо),
(3) скачать новый торрент и запустить его у себя в клиенте вместо старого, при этом указать клиенту путь в старую папку куда и должно происходить скачивание новых серий.
Ваш клиент при этом должен произвести хеширование (проверку) старой папки (если не производит сам - помогите ему сделать это), и будет докачивать только те серии которых у вас ещё нет. Старые серии при этом не удаляются, а продолжают раздаваться!
Eсли вы уже удалили старые серии, то предотвратить повторную закачку старых серий можно, отжав галочку в соответсвующих местах при запуске нового торрента. По возможности, желательно не удалять старые серии как можно дольше чтобы релизёр не столько продолжал раздавать старые серии, а смог сконцентрироваться на новых.
-
Вне форума [Профиль] [ЛС]
Показать сообщения:    
Ответить на тему

Текущее время: Сегодня 12:06

Часовой пояс: GMT + 3



Вы не можете начинать темы
Вы не можете отвечать на сообщения
Вы не можете редактировать свои сообщения
Вы не можете удалять свои сообщения
Вы не можете голосовать в опросах
Вы не можете прикреплять файлы к сообщениям
Вы не можете скачивать файлы