Сегодня идет свободное скачивание без начисления Download

Гриффины / Family Guy / Сезон: 11 / Серии: 21-22 из 22 (Сет Макфарлейн / Seth MacFarlane) [2013, комедия, сатира, HDTVRip] MVO (Idea Film)

Ответить на тему
 
Автор
Сообщение

Omen ®

Стаж: 4 года 10 месяцев

Сообщений: 190643

Торрент-статистика

Пост 31-Май-2013 01:10

[Цитировать]

Гриффины / Family Guy
Страна: США
Жанр: комедия, сатира
Продолжительность: 00:21:38
Год выпуска: 2013
Перевод: Профессиональный (многоголосый закадровый)
Русские субтитры: нет
Режиссёр: Сет Макфарлейн
Роли озвучивали: Сет МакФарлейн, Алекс Борштейн, Сет Грин, Мила Кунис, Майк Генри и другие.
Описание: "Гриффины" (Family Guy) - анимационное ТВ-Шоу, созданное Сетом МакФерлайном (Seth MacFarlane) для телеканала FOX. Как нетрудно догадаться, главными героями шоу является семейка Гриффинов: тупой, но полный сумашедших идей, составляющих львиную долю шуток сериала, отец семейства Питер; его любящя и терпеливая жена Лойс, всеми силами пытающаяся превратить Гриффинов в нормальную семью; их интеллектуально развитый не по годам, вынашивающий идею мирового господства младший сын Стьюи; дочь-ботаник, обречённая из-за этого на одиночество и непонимание как в школе так и дома, Мэг; и 13-ти летний отсталый в развитии лет на 10, сын Крис. Также полноценным членом семьи является пёс Брайн - склонный к меланхолии эстет, спокойно наблюдающий с бокалом вина в лапе над приключениями Питера и остальных членов семьи (и это при всём притом, что остальные собаки в сериале не являются очеловеченными).
Список серий:
11 сезон 21 серия
11 сезон 22 серия
Доп. информация: Озвучено ТО Idea Film
Семпл: http://multi-up.com/868426
Качество: HDTVRip
Формат: AVI
Видео: Xvid, 624x352, 23.976fps, 990 kbps
Аудио: MPEG Audio Layer 3 48000Hz stereo 128kbps [Rus. MVO]
Аудио 2: MPEG Audio Layer 3 48000Hz stereo 128kbps
Субтитры: отсутствуют

Подробные технические данные

Format : AVIFormat/Info : Audio Video InterleaveFile size : 210 MiBDuration : 21mn 38sOverall bit rate mode : VariableOverall bit rate : 1 356 KbpsWriting application : VirtualDubMod 1.5.10.2 (build 2542/release)Writing library : VirtualDubMod build 2542/release
VideoID : 0Format : MPEG-4 VisualFormat profile : Advanced Simple@L5Format settings, BVOP : 2Format settings, QPel : NoFormat settings, GMC : No warppointsFormat settings, Matrix : Default (H.263)Muxing mode : Packed bitstreamCodec ID : XVIDCodec ID/Hint : XviDDuration : 21mn 38sBit rate : 990 KbpsWidth : 624 pixelsHeight : 352 pixelsDisplay aspect ratio : 16:9Frame rate : 23.976 fpsColor space : YUVChroma subsampling : 4:2:0Bit depth : 8 bitsScan type : ProgressiveCompression mode : LossyBits/(Pixel*Frame) : 0.188Stream size : 153 MiB (73%)Writing library : XviD 1.2.0.dev47 (UTC 2006-11-01)
Audio #1ID : 1Format : MPEG AudioFormat version : Version 1Format profile : Layer 3Mode : Joint stereoCodec ID : 55Codec ID/Hint : MP3Duration : 21mn 38sBit rate mode : VariableBit rate : 128 KbpsChannel(s) : 2 channelsSampling rate : 48.0 KHzCompression mode : LossyStream size : 34.1 MiB (16%)Alignment : Aligned on interleavesInterleave, duration : 24 ms (0.58 video frame)Interleave, preload duration : 502 ms
Audio #2ID : 2Format : MPEG AudioFormat version : Version 1Format profile : Layer 3Mode : Joint stereoCodec ID : 55Codec ID/Hint : MP3Duration : 21mn 38sBit rate mode : ConstantBit rate : 128 KbpsChannel(s) : 2 channelsSampling rate : 48.0 KHzCompression mode : LossyStream size : 19.8 MiB (9%)Alignment : Aligned on interleavesInterleave, duration : 42 ms (1.00 video frame)Interleave, preload duration : 504 ms

Скриншоты

Вне форума [Профиль] [ЛС]
Показать сообщения:    
Ответить на тему

Текущее время: Сегодня 09:55

Часовой пояс: GMT + 3



Вы не можете начинать темы
Вы не можете отвечать на сообщения
Вы не можете редактировать свои сообщения
Вы не можете удалять свои сообщения
Вы не можете голосовать в опросах
Вы не можете прикреплять файлы к сообщениям
Вы не можете скачивать файлы