Сегодня идет свободное скачивание без начисления Download

Тюрьма Оз / Oz [Сезон 6 полный] (2003) DVDRip [H.264] [sf@irat]

Ответить на тему
 
Автор
Сообщение

UndegraundMen ®

Стаж: 5 лет 4 месяца

Сообщений: 25866

Торрент-статистика

Пост 29-Май-2013 05:33

[Цитировать]

Тюрьма Оз / Oz
полный и последний шестой сезон
- Русское название: Тюрьма Оз
Оригинальное название: Oz
Год выпуска: 2003
Жанр: Криминал, Драма, Триллер
Продолжительность: одна серия ~ 00:55:00
Количество серий: 8
Перевод: Одноголосый закадровый (Дмитрий "sf@irat" Штамп)
Вид субтитров: Вшитые отключаемые
Язык субтитров: Английские-
Дата выхода DVD: 05.09.2006
Режиссер: Дарнелл Мартин, Ник Гомез, Жан Де Сегонзак, Лесли Либман, Ларри Уильямс, Алан Тейлор
Актеры: Ли Тергесен, Дж.К. Симмонс, Дин Уинтерс, Хэролд Перрино, Эрни Хадсон, Терри Кинни, Имонн Уолкер, Рита Морено, Джордж Морфоген, Скотт Уильям Уинтерс, Кирк Асеведо, Отто Санчес, Кристофер Мелони, Гранивиль’Дэнни’ Адамс, Мумс Да Шемер, Лорен Велес, Б.Д. Вонг, Карл ДиМаджио, Чак Зито, Адевале Акиннуойе-Агбадже, Том Мардиросян, Р.Э. Роджерс, Роберт Клохесси, Кристин Рохд, Эди Фэлко, Дж.Д. Уильямс, Сет Гиллиам, Кэтрин Эрбе, Бретт Джиллен, Филип Каснофф, Луис Гузман, Марк Марголис, Эрни Хадсон мл., Наташа Диаз, Хуан Карлос Эрнандез
Описание фильма:
Оз — так называют государственное исправительное учреждение строгого режима. Оз воздает каждому по заслугам. Кто там только не отбывает наказание! И убийцы, и мошенники, и извращенцы. А уже среди них — психопаты, как например, Гроуз — душевнобольной социопат, прикончивший своих родителей, и съевший их, или больные СПИДом, а еще полно гомосексуалистов и наркоманов, которых постоянно истребляет Дино Арталани, осужденный пожизненно за преднамеренное убийство.
Но, тем не менее, в тюрьме царят порядок, жесткие правила и стерильная чистота. Однако, все это только днем. Ночью на смену установленному властями порядку приходит свой страшный и «крутой» закон — не каждому удается дожить до утра…-Контейнер: MKV
Качество видео: DVDRip
Видеокодек: MPEG-4 AVC/H.264
Видео: 712x480@712x528 (4:3), 23.976 fps, ~1350 kbps
Аудиокодек: AC3 2.0
Аудио №1: 48 kHz, 16 bit, 192 Kbps (sf@irat / русский)
Аудио №2: 48 kHz, 16 bit, 192 Kbps (оригинал / english)
Внимание! Присутствует ненормативная лексика!
Всего в сезоне 8 серий. Последняя серия в версии Xtended Cut идёт 1 час 45 минут

MediaInfo

General
Complete name : D:\Торрент\Тюрьма ОЗ сезон 6\Oz.S06E02.sf@irat.mkv
Format : Matroska
Format version : Version 4 / Version 2
File size : 699 MiB
Duration : 56mn 31s
Overall bit rate : 1 729 Kbps
Encoded date : UTC 2013-02-18 20:10:36
Writing application : mkvmerge v6.0.0 ('Coming Up For Air') built on Jan 20 2013 09:52:00
Writing library : libebml v1.3.0 + libmatroska v1.4.0
Video
ID : 1
Format : AVC
Format/Info : Advanced Video Codec
Format profile : [url=mailto:High@L3.1]High@L3.1[/url]
Format settings, CABAC : Yes
Format settings, ReFrames : 13 frames
Codec ID : V_MPEG4/ISO/AVC
Duration : 56mn 31s
Bit rate : 1 343 Kbps
Width : 712 pixels
Height : 476 pixels
Display aspect ratio : 4:3
Original display aspect ratio : 4:3
Frame rate mode : Constant
Frame rate : 23.976 fps
Color space : YUV
Chroma subsampling : 4:2:0
Bit depth : 8 bits
Scan type : Progressive
Bits/(Pixel*Frame) : 0.165
Stream size : 530 MiB (76%)
Title : OZ S06E02: See No Evil, Hear No Evil, Smell No Evil
Writing library : x264 core 65 r998M 6768543
Encoding settings : cabac=1 / ref=13 / deblock=1:-3:-3 / analyse=0x3:0x113 / me=umh / subme=9 / psy_rd=1.0:1.0 / mixed_ref=1 / me_range=42 / chroma_me=1 / trellis=2 / 8x8dct=1 / cqm=0 / deadzone=6,5 / chroma_qp_offset=-4 / threads=6 / nr=0 / decimate=0 / mbaff=0 / bframes=5 / b_pyramid=1 / b_adapt=2 / b_bias=0 / direct=3 / wpredb=1 / keyint=250 / keyint_min=25 / scenecut=46(pre) / rc=2pass / bitrate=1343 / ratetol=1.0 / qcomp=0.50 / qpmin=10 / qpmax=51 / qpstep=4 / cplxblur=20.0 / qblur=0.5 / vbv_maxrate=14000 / vbv_bufsize=14000 / ip_ratio=1.40 / pb_ratio=1.30 / aq=1:0.80
Language : English
Default : Yes
Forced : No
Audio #1
ID : 2
Format : AC-3
Format/Info : Audio Coding 3
Mode extension : CM (complete main)
Format settings, Endianness : Big
Codec ID : A_AC3
Duration : 56mn 31s
Bit rate mode : Constant
Bit rate : 192 Kbps
Channel(s) : 2 channels
Channel positions : Front: L R
Sampling rate : 48.0 KHz
Bit depth : 16 bits
Compression mode : Lossy
Stream size : 77.6 MiB (11%)
Title : AVO sf@irat
Language : Russian
Default : Yes
Forced : No
Audio #2
ID : 3
Format : AC-3
Format/Info : Audio Coding 3
Mode extension : CM (complete main)
Format settings, Endianness : Big
Codec ID : A_AC3
Duration : 56mn 31s
Bit rate mode : Constant
Bit rate : 192 Kbps
Channel(s) : 2 channels
Channel positions : Front: L R
Sampling rate : 48.0 KHz
Bit depth : 16 bits
Compression mode : Lossy
Stream size : 77.6 MiB (11%)
Title : English
Language : English
Default : No
Forced : No
Text
ID : 4
Format : UTF-8
Codec ID : S_TEXT/UTF8
Codec ID/Info : UTF-8 Plain Text
Title : English
Language : English
Default : No
Forced : No
Скриншоты:
         
-
Вне форума [Профиль] [ЛС]
Показать сообщения:    
Ответить на тему

Текущее время: Сегодня 19:33

Часовой пояс: GMT + 3



Вы не можете начинать темы
Вы не можете отвечать на сообщения
Вы не можете редактировать свои сообщения
Вы не можете удалять свои сообщения
Вы не можете голосовать в опросах
Вы не можете прикреплять файлы к сообщениям
Вы не можете скачивать файлы