Сегодня идет свободное скачивание без начисления Download

Злые птички / Angry Birds Toons (2013) SATRip (1 сезон, серий 11 из 52) (обновляемая)

Ответить на тему
 
Автор
Сообщение

UndegraundMen ®

Стаж: 4 года 9 месяцев

Сообщений: 26429

Торрент-статистика

Пост 29-Май-2013 00:01

[Цитировать]

Злые птички / Angry Birds Toons (2013) SATRip- Русское название: Злые птички (Сердитые птички)
Оригинальное название: Angry Birds Toons
Год выпуска: 2013
Сезон: 1 (Первый)
Страна: Финляндия
Жанр: Компьютерная анимация, комедия, приключения
Перевод: Без слов / Немой
Режиссер: Ким Хельминен
Роли озвучивали: Антти Паконен, Линне Гаглионе, Хелья Хейккинен
Описание фильма:
Мульсериал студии Rovio о мегапопулярных Злых птичках. Почему эти существа настолько злые, а Свиней называют Королевскими? Ответим на все вопросы!)
Продолжительность: 11 x ~ 00:02:45
Видеокодек: Xvid
Битрейт видео: ~1500 Кбит/сек
Размер кадра: 720 x 416
Качество видео: SATRip (канал 1+1)
Аудиокодек: MP3 2.0
Битрейт аудио: 128 Кбит/сек
(обновляемая)[/url]

Список серий (1 сезон)

01. Время Чака | Chuck Time
02. Где моя корона? | Where's My Crown?
03. Цельнометаллический Чак | Full Metall Chuck
04. Ещё один день рождения | Another Birthday
05. Звуки из яиц | Egg Sounds
06. Свиньи таланты | Pig Telent
07. Гордон Бе-е! | Gordon Bleugh!
08. Чисто голубой? | True Blue?
09. Делай как я сказала! | Do as I Say!
10. Выходной | Off Duty
11. Рогатка 101 | Slingshot 101

Техданные

Общее
Полное имя : \Angry Birds Toons.2013.SATRip\E04 - Angry Birds Toons (2013) SATRip.avi
Формат : AVI
Формат/Информация : Audio Video Interleave
Размер файла : 31,8 Мбайт
Продолжительность : 2 м. 43 с.
Общий поток : 1630 Кбит/сек
Программа кодирования : VirtualDubMod 1.5.10.2 (build 2540/release)
Библиотека кодирования : VirtualDubMod build 2540/release
Видео
Идентификатор : 0
Формат : MPEG-4 Visual
Профиль формата : Advanced Simple@L5
Параметр BVOP формата : 2
Параметр QPel формата : Нет
Параметр GMC формата : Без точки перехода
Параметр матрицы формата : Default (MPEG)
Режим смешивания : Сжатый битовый поток
Идентификатор кодека : XVID
Идентификатор кодека/Подсказка : XviD
Продолжительность : 2 м. 43 с.
Битрейт : 1492 Кбит/сек
Ширина : 720 пикселей
Высота : 416 пикселей
Соотношение сторон : 1,731
Частота кадров : 25,000 кадров/сек
Цветовое пространство : YUV
Субдискретизация насыщенности : 4:2:0
Битовая глубина : 8 бит
Тип развёртки : Прогрессивная
Метод сжатия : С потерями
Бит/(Пиксели*Кадры) : 0.199
Размер потока : 29,1 Мбайт (92%)
Библиотека кодирования : XviD 64
Аудио
Идентификатор : 1
Формат : MPEG Audio
Версия формата : Version 1
Профиль формата : Layer 3
Режим : Joint stereo
Расширение режима : MS Stereo
Идентификатор кодека : 55
Идентификатор кодека/Подсказка : MP3
Продолжительность : 2 м. 43 с.
Вид битрейта : Постоянный
Битрейт : 128 Кбит/сек
Каналы : 2 канала
Частота : 48,0 КГц
Метод сжатия : С потерями
Размер потока : 2,49 Мбайт (8%)
Выравнивание : Соединение по промежуткам
Продолжительность промежутка : 40 мс. (1,00 видеокадр)
Время предзагрузки промежутка : 504 мс.

Внимание! Раздача ведётся путём добавления новых серий

Внимание! Раздача ведётся путём добавления новых серий; при каждом добавлении создаётся новый торрент.
Чтобы начать докачку новой серии, пользователям необходимо сделать следующее:
(1) остановить скачивание;
(2) удалить старый торрент у себя из клиента (старые серии удалять не надо);
(3) скачать новый торрент и запустить его у себя в клиенте вместо старого, при этом указать клиенту путь в старую папку куда и должно происходить скачивание новых серий. Ваш клиент при этом должен произвести хеширование (проверку) старой папки (если не производит сам - помогите ему сделать это), и будет докачивать только те серии, которых у Вас ещё нет. Старые серии при этом не удаляются, а продолжают раздаваться! Если Вы уже удалили старые серии, то предотвратить повторную закачку старых серий можно, отжав галочку в соответствующих местах при запуске нового торрента.
Скриншоты:          Время раздачи: С 13:00 до 21:00 (до 5 скачавших)Приятного просмотра!
Вне форума [Профиль] [ЛС]

Dracula

Стаж: 4 года 1 месяц

Сообщений: 10093

Торрент-статистика

Пост 29-Май-2013 08:47 (спустя 8 часов)

Топик был перенесен из форума Классика зарубежного кино в форум Мультсериалы


RUGUI
 
Показать сообщения:    
Ответить на тему

Текущее время: Сегодня 08:29

Часовой пояс: GMT + 3



Вы не можете начинать темы
Вы не можете отвечать на сообщения
Вы не можете редактировать свои сообщения
Вы не можете удалять свои сообщения
Вы не можете голосовать в опросах
Вы не можете прикреплять файлы к сообщениям
Вы не можете скачивать файлы