Сегодня идет свободное скачивание без начисления Download

Бесконтрольные / Unsupervised (2012) WEB-DL [H.264/720p-LQ] [Сезон 1, 1-6 серии] [18+] [Обновляемая]

Ответить на тему
 
Автор
Сообщение

UndegraundMen ®

Стаж: 4 года 7 месяцев

Сообщений: 26499

Торрент-статистика

Пост 28-Май-2013 00:06

[Цитировать]

Бесконтрольные / Unsupervised (2012) WEB-DL [H.264/720p-LQ] [Сезон 1, 1-6 серии] [18+] [Обновляемая]- Русское название: Бесконтрольные
Оригинальное название: Unsupervised
Год выпуска: 2012
Жанр: Компьютерная анимация, Для взрослых, Комедия
Язык: Русский
Описание:
Бесконтрольные - это комедия о двух оптимистичных лучших друзьях Гэри и Джоэле, путешествующих по суровым пейзажам подростковой жизни, пытаясь делать все правильно без родительского присмотра.
Режиссер: Тодд Реднер / Todd Redner
Персонажи: Джастин Лонг, Дэвид Хорнсби, Кристен Белл, Романи Малко, Роб Россель, Фред Армизен, Кэйтлин Олсен, Андре Соглиуззо, Мария Бэмфорд, Скотт Мардер
Продолжительность: 4 серий по ~00:21:00
Перевод: Одноголосый закадровый
Автор перевода: Дмитрий «Гоблин» Пучков по заказу канала 2x2
Релиз группа:
Работа со звуком: zhbanochek, vadimdexte
Субтитры: нет

Формат: MKV (x264)
Качество: WEB-DL 720p
Видео: ~3100 kb/s, 1280x720, 23.976 fps, 16:9
Аудио #2: AC3, 192 kb/s, 2 ch, 48 КГц, 16 бит [Автор. одноголосый, Гоблин]
Аудио #3: AC3, 384 kb/s, 6 ch, 48 КГц, 16 бит [Оригинал]

Список серий:

1. Pilot / Пилот
2. Rich Girl / Богатая девочка
3. Field of Dreams... and Dogs / Поле Чудес... и собаки
4. Fires & Liars / Огни & Лжецы
5. Stupid Idiots / Тупые идиоты
6. Nits / Вши

Внимание! Раздача ведётся путём добавления новых серий!

Внимание! Раздача ведётся путём добавления новых серий; при каждом добавлении создаётся новый торрент.
Чтобы начать докачку новой серии, пользователям необходимо сделать следующее:
(1) остановить скачивание;
(2) удалить старый торрент у себя из клиента (старые серии удалять не надо);
(3) скачать новый торрент и запустить его у себя в клиенте вместо старого, при этом указать клиенту путь в старую папку куда и должно происходить скачивание новых серий.Ваш клиент при этом должен произвести хеширование (проверку) старой папки (если не производит сам - помогите ему сделать это), и будет докачивать только те серии которых у вас ещё нет. Старые серии при этом не удаляются, а продолжают раздаваться!Eсли вы уже удалили старые серии, то предотвратить повторную закачку старых серий можно, отжав галочку в соответствующих местах при запуске нового торрента.

Media Info

Общее
Уникальный идентификатор : 247174679997516461383613533167922572720 (0xB9F41C9CF80843798D40D6FB84ADEDB0)
Полное имя : D:\My Video\Unsupervised\unsupervised.s01e01.web-dl.720.rus.eng.novafilm.tv.mkv
Формат : Matroska
Версия формата : Version 4 / Version 2
Размер файла : 567 Мбайт
Продолжительность : 21 м.
Общий поток : 3694 Кбит/сек
Дата кодирования : UTC 2013-05-15 12:55:39
Программа кодирования : mkvmerge v6.2.0 ('Promised Land') built on Apr 28 2013 12:22:01
Библиотека кодирования : libebml v1.3.0 + libmatroska v1.4.0
Видео
Идентификатор : 1
Формат : AVC
Формат/Информация : Advanced Video Codec
Профиль формата : [url=mailto:High@L3.1]High@L3.1[/url]
Параметр CABAC формата : Нет
Параметр ReFrames формата : 2 кадра
Идентификатор кодека : V_MPEG4/ISO/AVC
Продолжительность : 21 м.
Битрейт : 3045 Кбит/сек
Ширина : 1280 пикселей
Высота : 720 пикселей
Соотношение сторон : 16:9
Режим частоты кадров : Постоянный
Частота кадров : 23,976 кадра/сек
Цветовое пространство : YUV
Субдискретизация насыщенности : 4:2:0
Битовая глубина : 8 бит
Тип развёртки : Прогрессивная
Бит/(Пиксели*Кадры) : 0.138
Размер потока : 468 Мбайт (82%)
Язык : English
Default : Нет
Forced : Нет
Основные цвета : BT.709
Характеристики трансфера : BT.709
Коэффициенты матрицы : BT.709
Аудио #1
Идентификатор : 2
Формат : AC-3
Формат/Информация : Audio Coding 3
Расширение режима : CM (complete main)
Параметр Endianness формата : Big
Идентификатор кодека : A_AC3
Продолжительность : 21 м.
Вид битрейта : Постоянный
Битрейт : 192 Кбит/сек
Каналы : 2 канала
Расположение каналов : Front: L R
Частота : 48,0 КГц
Битовая глубина : 16 бит
Метод сжатия : С потерями
Размер потока : 29,5 Мбайт (5%)
Язык : Russian
Default : Да
Forced : Нет
Аудио #2
Идентификатор : 3
Формат : AC-3
Формат/Информация : Audio Coding 3
Расширение режима : CM (complete main)
Параметр Endianness формата : Big
Идентификатор кодека : A_AC3
Продолжительность : 21 м.
Вид битрейта : Постоянный
Битрейт : 384 Кбит/сек
Каналы : 6 каналов
Расположение каналов : Front: L C R, Side: L R, LFE
Частота : 48,0 КГц
Битовая глубина : 16 бит
Метод сжатия : С потерями
Размер потока : 59,0 Мбайт (10%)
Язык : English
Default : Нет
Forced : Нет
Скриншоты:
         
Вне форума [Профиль] [ЛС]

Dracula

Стаж: 3 года 11 месяцев

Сообщений: 10199

Торрент-статистика

Пост 28-Май-2013 10:19 (спустя 10 часов)

Топик был перенесен из форума Философия и религия в форум Мультсериалы


kogesan
 
Похожие темы
Форум Тема Автор Торрент Отв. Посл. сообщение
./templates/default/images/folder_dl.gif Обучающее видео Семинар 2 от 15.05.12 Строим бесконфликтные отношения в коллективе. Тандемный принцип [2012, методология управления и корпоративная культура, DVDRip, RUS] (Видеоурок) Omen
1 | 0

0 | 936

4

2012-12-15 00:56
Omen Последнее
./templates/default/images/folder_dl.gif Обучающее видео Convert Monster | Быстрые результаты в SEO + Бесконечный поток заявок из РСЯ и КМС (2015) PCRec moralis
1 | 0

0 | 599

19

2016-01-19 12:54
moralis Последнее
Показать сообщения:    
Ответить на тему

Текущее время: Сегодня 11:50

Часовой пояс: GMT + 3



Вы не можете начинать темы
Вы не можете отвечать на сообщения
Вы не можете редактировать свои сообщения
Вы не можете удалять свои сообщения
Вы не можете голосовать в опросах
Вы не можете прикреплять файлы к сообщениям
Вы не можете скачивать файлы