Сегодня идет свободное скачивание без начисления Download

Утопия / Utopia (2013) [H.264/720p] HDTVRip [Сезон 1, 6 серий из 6] [Jaskier]

Ответить на тему
 
Автор
Сообщение

UndegraundMen ®

Стаж: 5 лет 4 месяца

Сообщений: 25870

Торрент-статистика

Пост 27-Май-2013 00:01

[Цитировать]

Утопия / Utopia (2013)- Русское название: Утопия
Оригинальное название: Utopia
Год выпуска: 2013
Жанр: Драма
Перевод: Многоголосый закадровый, профессиональный
Озвучка / Автор перевода: Студия Jaskier / Doctor Joker и MartinaG
Вид субтитров: Отсутствуют

Дата мировой премьеры: 15 января 2013
Режиссер: Марк Манден / Marc Munden, Алекс Гарсия Лопес / Alex Garcia Lopez
Актеры: Нейтан Стюарт-Джарретт, Александра Роач, Адиль Ахтар, Пол Хиггинс, Фиона О’Шонесси
Описание фильма:
«Эксперименты Утопии» легендарный графический роман, окутанный тайной. Жизни пяти малознакомых людей, в руки которых попала рукопись, оказываются под угрозой. Когда по твоему следу идет безжалостная секретная организация известная как «Сеть», есть только один способ выжить — бегство.
Продолжительность: 6 x ~00:50:00
Качество видео: HDTVRip
Видеокодек: MPEG-4 AVC/H.264
Битрейт видео: ~2000 Kbps
Размер кадра: 1280x536
Аудиокодек: AC3 2.0/2.0
Битрейт аудио:
Аудио #1 (Rus): ~192 kbps avg
Аудио #2 (Eng): ~384 kbps avg

MediaInfo

Общее
Уникальный идентификатор : 223739485966212593154163178541131371807 (0xA852A856ED8745968832DDA629E2151F)
Полное имя : D:\Торренты на раздачу\Утопия\Utopia_1_season\Utopia.1x01.720p.mkv
Формат : Matroska
Версия формата : Version 2
Размер файла : 1013 Мбайт
Продолжительность : 59 м.
Общий поток : 2377 Кбит/сек
Дата кодирования : UTC 2013-02-06 20:58:58
Программа кодирования : mkvmerge v4.4.0 ('Die Wiederkehr') сборка от Oct 31 2010 21:52:48
Библиотека кодирования : Larry Sanders
Видео
Идентификатор : 1
Формат : AVC
Формат/Информация : Advanced Video Codec
Профиль формата : [url=mailto:High@L4.1]High@L4.1[/url]
Параметр CABAC формата : Да
Параметр ReFrames формата : 5 кадров
Идентификатор кодека : V_MPEG4/ISO/AVC
Продолжительность : 59 м.
Битрейт : 1754 Кбит/сек
Ширина : 1280 пикселей
Высота : 536 пикселей
Соотношение сторон : 2,40:1
Режим частоты кадров : Постоянный
Частота кадров : 25,000 кадров/сек
Цветовое пространство : YUV
Субдискретизация насыщенности : 4:2:0
Битовая глубина : 8 бит
Тип развёртки : Прогрессивная
Бит/(Пиксели*Кадры) : 0.102
Размер потока : 748 Мбайт (74%)
Библиотека кодирования : x264 core 129 r2230 1cffe9f
Настройки программы : cabac=1 / ref=5 / deblock=1:0:0 / analyse=0x3:0x113 / me=umh / subme=8 / psy=1 / psy_rd=1.00:0.00 / mixed_ref=1 / me_range=16 / chroma_me=1 / trellis=1 / 8x8dct=1 / cqm=0 / deadzone=21,11 / fast_pskip=1 / chroma_qp_offset=-2 / threads=12 / lookahead_threads=2 / sliced_threads=0 / nr=0 / decimate=1 / interlaced=0 / bluray_compat=0 / constrained_intra=0 / bframes=3 / b_pyramid=2 / b_adapt=2 / b_bias=0 / direct=3 / weightb=1 / open_gop=0 / weightp=2 / keyint=250 / keyint_min=25 / scenecut=40 / intra_refresh=0 / rc_lookahead=50 / rc=crf / mbtree=1 / crf=18.0 / qcomp=0.60 / qpmin=0 / qpmax=69 / qpstep=4 / ip_ratio=1.40 / aq=1:1.00
Язык : English
Default : Да
Forced : Нет
Аудио #1
Идентификатор : 2
Формат : AC-3
Формат/Информация : Audio Coding 3
Расширение режима : CM (complete main)
Параметр Endianness формата : Big
Идентификатор кодека : A_AC3
Продолжительность : 59 м.
Вид битрейта : Постоянный
Битрейт : 192 Кбит/сек
Каналы : 2 канала
Расположение каналов : Front: L R
Частота : 48,0 КГц
Битовая глубина : 16 бит
Метод сжатия : С потерями
Размер потока : 81,9 Мбайт (8%)
Заголовок : Jaskier Studio (Good People)
Язык : Russian
Default : Да
Forced : Нет
Аудио #2
Идентификатор : 3
Формат : AC-3
Формат/Информация : Audio Coding 3
Расширение режима : CM (complete main)
Параметр Endianness формата : Big
Идентификатор кодека : A_AC3
Продолжительность : 59 м.
Вид битрейта : Постоянный
Битрейт : 384 Кбит/сек
Каналы : 2 канала
Расположение каналов : Front: L R
Частота : 48,0 КГц
Битовая глубина : 16 бит
Метод сжатия : С потерями
Размер потока : 164 Мбайт (16%)
Заголовок : Original
Язык : English
Default : Нет
Forced : Нет
Скриншоты:
         
Вне форума [Профиль] [ЛС]
Показать сообщения:    
Ответить на тему

Текущее время: Сегодня 08:17

Часовой пояс: GMT + 3



Вы не можете начинать темы
Вы не можете отвечать на сообщения
Вы не можете редактировать свои сообщения
Вы не можете удалять свои сообщения
Вы не можете голосовать в опросах
Вы не можете прикреплять файлы к сообщениям
Вы не можете скачивать файлы