Сегодня идет свободное скачивание без начисления Download

Потерянная комната / The Lost Room (2006) [H.264] DVDRip [3 серии из 3]

Ответить на тему
 
Автор
Сообщение

UndegraundMen ®

Стаж: 5 лет 3 месяца

Сообщений: 25871

Торрент-статистика

Пост 26-Май-2013 00:00

[Цитировать]

Потерянная комната / The Lost Room (2006) [H.264] DVDRip [3 серии из 3]- Русское название: Потерянная комната
Оригинальное название: The Lost Room
Год выпуска: 2006
Жанр: Криминал , Мистика
Перевод: Многоголосый закадровый, профессиональный (LostFilm)

Режиссер: Грег Р. Бэксли, Майкл В. Уоткинс
Актеры: Питер Крауз , Джулиана Маргулес , Питер Якобсон и др.
Описание фильма:
Раследуя загадочное убийство, детектив Джо Миллер получает от умершего человека обычный на вид ключ от дверей. Однако этот ключ обладает свойством открыть любую дверь, имеющую замочную скважину, и впустить человека в одну единственную комнату номер 10, в мотеле Саншайн. Миллер узнает, что много лет назад в этой комнате произошло НЕЧТО, превратившее все находящиеся в ней предметы в магические артефакты, а сама комната пропала... В самых разных местах появляются загадочные предметы и проявляют свои магические свойства, помогая людям решать поставленную перед ними задачу или обрекая их на мучение и смерть. Но потерянная комната по-прежнему хранит свою самую главную тайну, кем был постоялец этой комнаты и какова была его цель.
Продолжительность: 270 мин. 1)01:27:41 2)01:27:10 3)01:27:19
Качество видео: DVDRip
Видеокодек: MPEG-4 AVC/H.264
Битрейт видео: ~2000 Kbps
Размер кадра: 720х400
Аудиокодек: AC3 5.1
Битрейт аудио: 256 Kbps
Сэмпл: Скачать

MediaInfo

General
Unique ID : 237880001548176229587550663575835929686 (0xB2F60595AF2F95D18BEF416553DE6C56)
Complete name : TheLostRoom.mkv
Format : Matroska
Format version : Version 4 / Version 2
File size : 1.38 GiB
Duration : 1h 27mn
Overall bit rate : 2 258 Kbps
Movie name : The Lost Room (rip by smithland)
Encoded date : UTC 2010-02-22 21:41:31
Writing application : mkvmerge v5.9.0 ('On The Loose')
Writing library : libebml v1.3.0 + libmatroska v1.4.0
Attachment : Yes
Video
ID : 1
Format : AVC
Format/Info : Advanced Video Codec
Format profile : [url=mailto:High@L3.1]High@L3.1[/url]
Format settings, CABAC : Yes
Format settings, ReFrames : 12 frames
Codec ID : V_MPEG4/ISO/AVC
Duration : 1h 27mn
Bit rate : 2 000 Kbps
Width : 720 pixels
Height : 400 pixels
Display aspect ratio : 16:9
Frame rate mode : Constant
Frame rate : 29.970 fps
Color space : YUV
Chroma subsampling : 4:2:0
Bit depth : 8 bits
Scan type : Progressive
Bits/(Pixel*Frame) : 0.232
Stream size : 1.19 GiB (87%)
Writing library : x264 core 130 r2273 b3065e6
Encoding settings : cabac=1 / ref=12 / deblock=1:-2:-1 / analyse=0x3:0x133 / me=umh / subme=11 / psy=1 / psy_rd=1.00:0.50 / mixed_ref=1 / me_range=30 / chroma_me=1 / trellis=2 / 8x8dct=1 / cqm=0 / deadzone=21,11 / fast_pskip=1 / chroma_qp_offset=-4 / threads=12 / lookahead_threads=1 / sliced_threads=0 / nr=0 / decimate=0 / interlaced=0 / bluray_compat=0 / constrained_intra=0 / bframes=8 / b_pyramid=2 / b_adapt=1 / b_bias=0 / direct=1 / weightb=1 / open_gop=0 / weightp=2 / keyint=300 / keyint_min=30 / scenecut=40 / intra_refresh=0 / rc_lookahead=40 / rc=2pass / mbtree=1 / bitrate=2000 / ratetol=1.0 / qcomp=0.60 / qpmin=0 / qpmax=69 / qpstep=4 / cplxblur=20.0 / qblur=0.5 / ip_ratio=1.40 / aq=1:1.00
Language : Russian
Default : Yes
Forced : Yes
Color primaries : BT.601 NTSC
Transfer characteristics : BT.709
Matrix coefficients : BT.601
Audio
ID : 2
Format : AC-3
Format/Info : Audio Coding 3
Mode extension : CM (complete main)
Format settings, Endianness : Big
Codec ID : A_AC3
Duration : 1h 27mn
Bit rate mode : Constant
Bit rate : 256 Kbps
Channel(s) : 6 channels
Channel positions : Front: L C R, Side: L R, LFE
Sampling rate : 48.0 KHz
Bit depth : 16 bits
Compression mode : Lossy
Stream size : 160 MiB (11%)
Language : Russian
Default : Yes
Forced : Yes
Menu
00:00:00.000 : en:Chapter 1
00:00:45.045 : en:Chapter 2
00:05:02.769 : en:Chapter 3
00:11:49.709 : en:Chapter 4
00:14:49.388 : en:Chapter 5
00:21:10.602 : en:Chapter 6
00:30:34.666 : en:Chapter 7
00:37:35.953 : en:Chapter 8
00:40:19.483 : en:Chapter 9
00:47:34.484 : en:Chapter 10
00:54:34.404 : en:Chapter 11
01:01:38.294 : en:Chapter 12
01:04:59.462 : en:Chapter 13
01:10:38.500 : en:Chapter 14
01:16:53.375 : en:Chapter 15
01:26:26.848 : en:Chapter 16
Скриншоты:
                   
Время раздачи: 12:00-22:00 МСК
Вне форума [Профиль] [ЛС]
Похожие темы
Форум Тема Автор Торрент Отв. Посл. сообщение
./templates/default/images/folder_dl.gif Психология, Тренинг, Саморазвитие Лора Вандеркам | Книга о потерянном времени. У вас больше возможностей, чем вы думаете (2015) [PDF, EPUB, FB2] }{@R0N
2 | 0

0 | 377

7

2018-01-06 12:11
}{@R0N Последнее
Показать сообщения:    
Ответить на тему

Текущее время: Сегодня 00:04

Часовой пояс: GMT + 3



Вы не можете начинать темы
Вы не можете отвечать на сообщения
Вы не можете редактировать свои сообщения
Вы не можете удалять свои сообщения
Вы не можете голосовать в опросах
Вы не можете прикреплять файлы к сообщениям
Вы не можете скачивать файлы