Today is a free download without charge Download

B.B. King: 12 Albums (1965-1978) Mini LP SHM-CD Collection/Remaster 2012, Universal Music Japan [FLAC|Lossless]

Reply to topic
 
Author
Message

UndegraundMen ®

Longevity: 6 years 9 months

Posts: 25145

Торрент-статистика

Post 25-May-2013 00:03

[Quote]

B.B. King: 12 Albums (1965-1978) Mini LP SHM-CD Collection/Remaster 2012, Universal Music Japan -
Год записи: 1965-1978
Год издания: 2012
Издатель (лейбл): Universal Music Japan
Номер по каталогу: UICY-94836/47
Жанр: Blues / Jazz / Soul
Продолжительность: 09:34:57
Наличие сканов в раздаче: full scans PNG 600dpi/300dpi (booklets)
Кодек: FLAC (*.flac)
Битрейт: Lossless
Тип рипа: (image+.cue)
Спасибо: ALLexxess
1965 - Live At The Regal
Продолжительность: 00:35:01
Трек лист:
01. Every Day I Have The Blues 02:37
02. Sweet Little Girl 04:16
03. It's My Own Fault 03:33
04. How Blue Can You Get 03:35
05. Please Love Me 03:00
06. You Upset Me Baby 02:38

продолжение трек листа Live At The Regal

07. Worry, Worry 06:23
08. Woke Up This Mornin' 01:44
09. You Done Lost Your Good Thing Now 04:33
10. Help The Poor 02:37

Отчёт ЕАС:

Код:
Exact Audio Copy V1.0 beta 3 from 29. August 2011
EAC extraction logfile from 31. January 2013, 20:18
B.B. King / Live At The Regal
Used drive  : PLEXTOR BD-R  PX-B950SA   Adapter: 6  ID: 0
Read mode               : Secure
Utilize accurate stream : Yes
Defeat audio cache      : Yes
Make use of C2 pointers : No
Read offset correction                      : 6
Overread into Lead-In and Lead-Out          : No
Fill up missing offset samples with silence : Yes
Delete leading and trailing silent blocks   : No
Null samples used in CRC calculations       : Yes
Used interface                              : Native Win32 interface for Win NT & 2000
Used output format : Internal WAV Routines
Sample format      : 44.100 Hz; 16 Bit; Stereo
TOC of the extracted CD
     Track |   Start  |  Length  | Start sector | End sector
    ---------------------------------------------------------
        1  |  0:00.00 |  2:37.66 |         0    |    11840
        2  |  2:37.66 |  4:16.45 |     11841    |    31085
        3  |  6:54.36 |  3:33.43 |     31086    |    47103
        4  | 10:28.04 |  3:35.06 |     47104    |    63234
        5  | 14:03.10 |  3:00.35 |     63235    |    76769
        6  | 17:03.45 |  2:38.71 |     76770    |    88690
        7  | 19:42.41 |  6:23.41 |     88691    |   117456
        8  | 26:06.07 |  1:44.28 |    117457    |   125284
        9  | 27:50.35 |  4:33.13 |    125285    |   145772
       10  | 32:23.48 |  2:37.36 |    145773    |   157583
Range status and errors
Selected range
     Filename C:\Users\Meijin\Desktop\Lossless Galaxy Rip by ALLexxess\BB King\1965 Live At The Regal (Universal Japan Mini LP SHM-CD 24bit Remaster 2012)\B.B. King - Live At The Regal.wav
     Peak level 100.0 %
     Extraction speed 6.5 X
     Range quality 100.0 %
     Test CRC CEF3490A
     Copy CRC CEF3490A
     Copy OK
No errors occurred
AccurateRip summary
Track  1  not present in database
Track  2  not present in database
Track  3  not present in database
Track  4  not present in database
Track  5  not present in database
Track  6  not present in database
Track  7  not present in database
Track  8  not present in database
Track  9  not present in database
Track 10  not present in database
None of the tracks are present in the AccurateRip database
End of status report
==== Log checksum 4575F47AF0E0767380CAB21788A18E9575A05D7083C0017B3CD3E9A46DA5830F ====

Отчёт auCDtect Task manager:

Код:
-----------------------
DON'T MODIFY THIS FILE
-----------------------
PERFORMER: auCDtect Task Manager, ver. 1.6.0 RC1 build 1.6.0.1
Copyright (c) 2008-2010 y-soft. All rights reserved
http://y-soft.org
ANALYZER: auCDtect: CD records authenticity detector, version 0.8.2
Copyright (c) 2004 Oleg Berngardt. All rights reserved.
Copyright (c) 2004 Alexander Djourik. All rights reserved.
FILE: B.B. King - Live At The Regal.flac
  Size: 223555970 Hash: 15B263A2566B42BE9A1AE0D1700B5541 Accuracy: -m0
  Conclusion: CDDA 76%
  Signature: 5C3E078C6CAD76DB1DE2BA3B907D6EB0BB05EFCB

Спектральный анализ

       
       

1967 - Blues Is King + 2


Продолжительность: 00:53:19
Трек лист:
01. Introduction 00:21
02. Waitin' On You 02:30
03. Introduction 00:48
04. Gamblers' Blues 05:12
05. Tired Of Your Jive 03:31
06. Night Life 04:48
07. Buzz Me 04:15
08. Don't Answer The Door 04:10
09. Blind Love 03:32
10. I Know What You're Puttin' Down 03:36
11. Baby Get Lost 03:59
12. Gonna Keep On Loving You 03:48
Bonus Tracks:
13. Goin' Down Slow (Live) 06:32
14. Sweet Sixteen, Parts One And Two (Live, Complete Version) 06:10
Track 1-12: Mono

Отчёт ЕАС:

Код:
Exact Audio Copy V1.0 beta 3 from 29. August 2011
EAC extraction logfile from 31. January 2013, 19:48
B.B. King / Blues Is King
Used drive  : PLEXTOR BD-R  PX-B950SA   Adapter: 6  ID: 0
Read mode               : Secure
Utilize accurate stream : Yes
Defeat audio cache      : Yes
Make use of C2 pointers : No
Read offset correction                      : 6
Overread into Lead-In and Lead-Out          : No
Fill up missing offset samples with silence : Yes
Delete leading and trailing silent blocks   : No
Null samples used in CRC calculations       : Yes
Used interface                              : Native Win32 interface for Win NT & 2000
Used output format : Internal WAV Routines
Sample format      : 44.100 Hz; 16 Bit; Stereo
TOC of the extracted CD
     Track |   Start  |  Length  | Start sector | End sector
    ---------------------------------------------------------
        1  |  0:00.00 |  0:21.60 |         0    |     1634
        2  |  0:21.60 |  2:30.06 |      1635    |    12890
        3  |  2:51.66 |  0:48.68 |     12891    |    16558
        4  |  3:40.59 |  5:12.40 |     16559    |    39998
        5  |  8:53.24 |  3:31.66 |     39999    |    55889
        6  | 12:25.15 |  4:48.01 |     55890    |    77490
        7  | 17:13.16 |  4:15.13 |     77491    |    96628
        8  | 21:28.29 |  4:10.39 |     96629    |   115417
        9  | 25:38.68 |  3:32.35 |    115418    |   131352
       10  | 29:11.28 |  3:36.39 |    131353    |   147591
       11  | 32:47.67 |  3:59.42 |    147592    |   165558
       12  | 36:47.34 |  3:48.55 |    165559    |   182713
       13  | 40:36.14 |  6:32.50 |    182714    |   212163
       14  | 47:08.64 |  6:10.30 |    212164    |   239943
Range status and errors
Selected range
     Filename C:\Users\Meijin\Desktop\Lossless Galaxy Rip by ALLexxess\BB King\1967 Blues Is King (Universal Japan Mini LP SHM-CD 24bit Remaster 2012)\B.B. King - Blues Is King.wav
     Peak level 100.0 %
     Extraction speed 7.2 X
     Range quality 100.0 %
     Test CRC 0538F125
     Copy CRC 0538F125
     Copy OK
No errors occurred
AccurateRip summary
Track  1  not present in database
Track  2  not present in database
Track  3  not present in database
Track  4  not present in database
Track  5  not present in database
Track  6  not present in database
Track  7  not present in database
Track  8  not present in database
Track  9  not present in database
Track 10  not present in database
Track 11  not present in database
Track 12  not present in database
Track 13  not present in database
Track 14  not present in database
None of the tracks are present in the AccurateRip database
End of status report
==== Log checksum B88D0F37B46390A1CB3AFF398D0A387E6A8FB75A31B0E9D364B58128BC5F1CC7 ====

Отчёт auCDtect Task manager:

Код:
-----------------------
DON'T MODIFY THIS FILE
-----------------------
PERFORMER: auCDtect Task Manager, ver. 1.6.0 RC1 build 1.6.0.1
Copyright (c) 2008-2010 y-soft. All rights reserved
http://y-soft.org
ANALYZER: auCDtect: CD records authenticity detector, version 0.8.2
Copyright (c) 2004 Oleg Berngardt. All rights reserved.
Copyright (c) 2004 Alexander Djourik. All rights reserved.
FILE: B.B. King - Blues Is King.flac
  Size: 285945551 Hash: 963F8888068532CCF2D496E36C445F13 Accuracy: -m0
  Conclusion: CDDA 100%
  Signature: 86BBB07CE6D0A3A6BD0F24C7D258E3F78F12AA99

Спектральный анализ

       
       

1967 - Blues On Top Of Blues


Продолжительность: 00:32:12
Трек лист:
01. Heartbreaker 02:32
02. Losing Faith In You 02:58
03. Dance With Me 03:35
04. That's Wrong Little Mama 02:20
05. Having My Say 02:42
06. I'm Not Wanted Anymore 02:27
07. Worried Dream 02:57
08. Paying The Cost To Be The Boss 02:35
09. Until I Found You 02:24
10. I'm Gonna Do What They Do To Me 02:48
11. Raining In My Heart 02:30
12. Now That You've Lost Me 02:29

Отчёт ЕАС:

Код:
Exact Audio Copy V1.0 beta 3 from 29. August 2011
EAC extraction logfile from 30. January 2013, 21:25
B.B. King / Blues On Top Of The Blues
Used drive  : PLEXTOR BD-R  PX-B950SA   Adapter: 6  ID: 0
Read mode               : Secure
Utilize accurate stream : Yes
Defeat audio cache      : Yes
Make use of C2 pointers : No
Read offset correction                      : 6
Overread into Lead-In and Lead-Out          : No
Fill up missing offset samples with silence : Yes
Delete leading and trailing silent blocks   : No
Null samples used in CRC calculations       : Yes
Used interface                              : Native Win32 interface for Win NT & 2000
Used output format : Internal WAV Routines
Sample format      : 44.100 Hz; 16 Bit; Stereo
TOC of the extracted CD
     Track |   Start  |  Length  | Start sector | End sector
    ---------------------------------------------------------
        1  |  0:00.00 |  2:32.54 |         0    |    11453
        2  |  2:32.54 |  2:58.09 |     11454    |    24812
        3  |  5:30.63 |  3:25.13 |     24813    |    40200
        4  |  8:56.01 |  2:20.12 |     40201    |    50712
        5  | 11:16.13 |  2:42.29 |     50713    |    62891
        6  | 13:58.42 |  2:27.44 |     62892    |    73960
        7  | 16:26.11 |  2:57.31 |     73961    |    87266
        8  | 19:23.42 |  2:35.46 |     87267    |    98937
        9  | 21:59.13 |  2:24.57 |     98938    |   109794
       10  | 24:23.70 |  2:48.10 |    109795    |   122404
       11  | 27:12.05 |  2:30.63 |    122405    |   133717
       12  | 29:42.68 |  2:29.59 |    133718    |   144951
Range status and errors
Selected range
     Filename C:\Users\Meijin\Desktop\Lossless Galaxy Rip by ALLexxess\BB King\1967 Blues On Top Of Blues (Universal Japan Mini LP SHM-CD 24bit Remaster 2012)\B.B. King - Blues On Top Of The Blues.wav
     Peak level 100.0 %
     Extraction speed 2.9 X
     Range quality 100.0 %
     Test CRC 2980D64A
     Copy CRC 2980D64A
     Copy OK
No errors occurred
AccurateRip summary
Track  1  not present in database
Track  2  not present in database
Track  3  not present in database
Track  4  not present in database
Track  5  not present in database
Track  6  not present in database
Track  7  not present in database
Track  8  not present in database
Track  9  not present in database
Track 10  not present in database
Track 11  not present in database
Track 12  not present in database
None of the tracks are present in the AccurateRip database
End of status report
==== Log checksum 52A9062250A128E90C7A93F2AEB43B46C80A427815D70A6E5AC593304CD173AD ====

Отчёт auCDtect Task manager:

Код:
-----------------------
DON'T MODIFY THIS FILE
-----------------------
PERFORMER: auCDtect Task Manager, ver. 1.6.0 RC1 build 1.6.0.1
Copyright (c) 2008-2010 y-soft. All rights reserved
http://y-soft.org
ANALYZER: auCDtect: CD records authenticity detector, version 0.8.2
Copyright (c) 2004 Oleg Berngardt. All rights reserved.
Copyright (c) 2004 Alexander Djourik. All rights reserved.
FILE: B.B. King - Blues On Top Of The Blues.flac
  Size: 202382730 Hash: 1979A27A2D4A69B089D4CBB0BB65A8C1 Accuracy: -m0
  Conclusion: CDDA 100%
  Signature: EF4C84EDCFD42A6F8294C981A3E73494A305A923

Спектральный анализ

       
       

1968 - His Best - The Electric B.B.King + 9


Продолжительность: 00:56:42
Трек лист:
01. Tired Of Your Jive 02:12
02. Don't Answer The Door 05:12
03. The B. B. Jones 02:43
04. All Over Again 02:38
05. Paying The Cost To Be The Boss 02:35
06. Think It Over 02:50
07. I Done Got Wise 02:22
08. Meet My Happiness 02:20
09. Sweet Sixteen (Parts 1 & 2) 04:18
10. You Put It On Me 02:52
11. I Don't Want You Cutting Off Your Hair 02:40
Bonus Tracks:
12. Waitin' On You 02:27
13. Messy But Good (from Motion Picture Sountrack 'For The Love Of Ivy') 02:35
14. Night Life 02:35
15. How Blue Can You Get (Single Version) 02:42
16. Rockin' Awhile 02:43
17. Help The Poor (Single Version) 02:38
18. Stop Leadin' Me On (Single Version) 02:22
19. Never Trust A Woman (Single Version) 02:37
20. Sloppy Drunk (Single Version) (Mono) 03:10

Отчёт ЕАС:

Код:
Exact Audio Copy V1.0 beta 3 from 29. August 2011
EAC extraction logfile from 30. January 2013, 20:37
B.B. King / His Best - The Electric B.B. King
Used drive  : PLEXTOR BD-R  PX-B950SA   Adapter: 6  ID: 0
Read mode               : Secure
Utilize accurate stream : Yes
Defeat audio cache      : Yes
Make use of C2 pointers : No
Read offset correction                      : 6
Overread into Lead-In and Lead-Out          : No
Fill up missing offset samples with silence : Yes
Delete leading and trailing silent blocks   : No
Null samples used in CRC calculations       : Yes
Used interface                              : Native Win32 interface for Win NT & 2000
Used output format : Internal WAV Routines
Sample format      : 44.100 Hz; 16 Bit; Stereo
TOC of the extracted CD
     Track |   Start  |  Length  | Start sector | End sector
    ---------------------------------------------------------
        1  |  0:00.00 |  2:12.57 |         0    |     9956
        2  |  2:12.57 |  5:12.37 |      9957    |    33393
        3  |  7:25.19 |  2:43.50 |     33394    |    45668
        4  | 10:08.69 |  2:38.17 |     45669    |    57535
        5  | 12:47.11 |  2:35.55 |     57536    |    69215
        6  | 15:22.66 |  2:50.35 |     69216    |    82000
        7  | 18:13.26 |  2:22.14 |     82001    |    92664
        8  | 20:35.40 |  2:20.49 |     92665    |   103213
        9  | 22:56.14 |  4:18.00 |    103214    |   122563
       10  | 27:14.14 |  2:52.48 |    122564    |   135511
       11  | 30:06.62 |  2:40.66 |    135512    |   147577
       12  | 32:47.53 |  2:27.17 |    147578    |   158619
       13  | 35:14.70 |  2:35.19 |    158620    |   170263
       14  | 37:50.14 |  2:35.57 |    170264    |   181945
       15  | 40:25.71 |  2:42.29 |    181946    |   194124
       16  | 43:08.25 |  2:43.20 |    194125    |   206369
       17  | 45:51.45 |  2:38.64 |    206370    |   218283
       18  | 48:30.34 |  2:22.68 |    218284    |   229001
       19  | 50:53.27 |  2:37.60 |    229002    |   240836
       20  | 53:31.12 |  3:10.13 |    240837    |   255099
Range status and errors
Selected range
     Filename C:\Users\Meijin\Desktop\Lossless Galaxy Rip by ALLexxess\BB King\1968 His Best - The Electric B.B.King (Universal Japan Mini LP SHM-CD 24bit Remaster 2012)\B.B. King - His Best The Electric B.B. King.wav
     Peak level 100.0 %
     Extraction speed 3.3 X
     Range quality 99.9 %
     Test CRC 9F5A526E
     Copy CRC 9F5A526E
     Copy OK
No errors occurred
AccurateRip summary
Track  1  not present in database
Track  2  not present in database
Track  3  not present in database
Track  4  not present in database
Track  5  not present in database
Track  6  not present in database
Track  7  not present in database
Track  8  not present in database
Track  9  not present in database
Track 10  not present in database
Track 11  not present in database
Track 12  not present in database
Track 13  not present in database
Track 14  not present in database
Track 15  not present in database
Track 16  not present in database
Track 17  not present in database
Track 18  not present in database
Track 19  not present in database
Track 20  not present in database
None of the tracks are present in the AccurateRip database
End of status report
==== Log checksum ECA0BA3B5BE9767C50F9B3381666CBCCA46BD50FA969D4364ABC17CBBFCCA743 ====

Отчёт auCDtect Task manager:

Код:
-----------------------
DON'T MODIFY THIS FILE
-----------------------
PERFORMER: auCDtect Task Manager, ver. 1.6.0 RC1 build 1.6.0.1
Copyright (c) 2008-2010 y-soft. All rights reserved
http://y-soft.org
ANALYZER: auCDtect: CD records authenticity detector, version 0.8.2
Copyright (c) 2004 Oleg Berngardt. All rights reserved.
Copyright (c) 2004 Alexander Djourik. All rights reserved.
FILE: B.B. King - His Best The Electric B.B. King.flac
  Size: 352543434 Hash: 58B77C5AF213143354AF73EC8FDF03FF Accuracy: -m0
  Conclusion: CDDA 100%
  Signature: D581060AEB15C1CDE80CD7DCCD3325C3D8C05DFC

Спектральный анализ

       
       

1968 - Live & Well + 1

Продолжительность: 00:50:32
Трек лист:
01. Don't Answer The Door 06:14
02. Just A Little Love 05:15
03. My Mood 02:38
04. Sweet Little Angel 05:03
05. Please Accept My Love 03:12
06. I Want You So Bad 04:17
07. Friends 05:39
08. Get Off My Back Woman 03:18
09. Let's Get Down To Business 03:37
10. Why I Sing The Blues 08:38
Bonus Track:
11. Get Myself Somebody (Mono) 02:35

Отчёт ЕАС:

Код:
Exact Audio Copy V1.0 beta 3 from 29. August 2011
EAC extraction logfile from 30. January 2013, 19:38
B.B. King / Live & Well
Used drive  : PLEXTOR BD-R  PX-B950SA   Adapter: 6  ID: 0
Read mode               : Secure
Utilize accurate stream : Yes
Defeat audio cache      : Yes
Make use of C2 pointers : No
Read offset correction                      : 6
Overread into Lead-In and Lead-Out          : No
Fill up missing offset samples with silence : Yes
Delete leading and trailing silent blocks   : No
Null samples used in CRC calculations       : Yes
Used interface                              : Native Win32 interface for Win NT & 2000
Used output format : Internal WAV Routines
Sample format      : 44.100 Hz; 16 Bit; Stereo
TOC of the extracted CD
     Track |   Start  |  Length  | Start sector | End sector
    ---------------------------------------------------------
        1  |  0:00.00 |  6:14.57 |         0    |    28106
        2  |  6:14.57 |  5:15.72 |     28107    |    51803
        3  | 11:30.54 |  2:38.60 |     51804    |    63713
        4  | 14:09.39 |  5:03.56 |     63714    |    86494
        5  | 19:13.20 |  3:12.65 |     86495    |   100959
        6  | 22:26.10 |  4:17.20 |    100960    |   120254
        7  | 26:43.30 |  5:39.18 |    120255    |   145697
        8  | 32:22.48 |  3:18.06 |    145698    |   160553
        9  | 35:40.54 |  3:37.24 |    160554    |   176852
       10  | 39:18.03 |  8:38.09 |    176853    |   215711
       11  | 47:56.12 |  2:35.25 |    215712    |   227361
Range status and errors
Selected range
     Filename C:\Users\Meijin\Desktop\Lossless Galaxy Rip by ALLexxess\BB King\1968 Live & Well (Universal Japan Mini LP SHM-CD 24bit Remaster 2012)\B.B. King - Live & Well.wav
     Peak level 100.0 %
     Extraction speed 7.0 X
     Range quality 99.9 %
     Test CRC D631218C
     Copy CRC D631218C
     Copy OK
No errors occurred
AccurateRip summary
Track  1  not present in database
Track  2  not present in database
Track  3  not present in database
Track  4  not present in database
Track  5  not present in database
Track  6  not present in database
Track  7  not present in database
Track  8  not present in database
Track  9  not present in database
Track 10  not present in database
Track 11  not present in database
None of the tracks are present in the AccurateRip database
End of status report
==== Log checksum 615E9B672A30419496C8D0E8A5EEA425F2B244395EB50345956CEB6574DE3125 ====

Отчёт auCDtect Task manager:

Код:
-----------------------
DON'T MODIFY THIS FILE
-----------------------
PERFORMER: auCDtect Task Manager, ver. 1.6.0 RC1 build 1.6.0.1
Copyright (c) 2008-2010 y-soft. All rights reserved
http://y-soft.org
ANALYZER: auCDtect: CD records authenticity detector, version 0.8.2
Copyright (c) 2004 Oleg Berngardt. All rights reserved.
Copyright (c) 2004 Alexander Djourik. All rights reserved.
FILE: B.B. King - Live & Well.flac
  Size: 311821030 Hash: F7B46215CC5903D338866662AD4CA067 Accuracy: -m0
  Conclusion: CDDA 99%
  Signature: B2B6425AEA6D876C5E9B6FE0A19785D33EC85E18

Спектральный анализ

       
      [img][/img]

1969 - Completely Well + 1


Продолжительность: 00:50:32
Трек лист:
01. So Excited 05:37
02. No Good 04:37
03. You're Losin' Me 04:55
04. What Happened 04:43
05. Confessin' The Blues 04:56
06. Key To My Kingdom 03:20
07. Cryin' Won't Help You Now 06:23
08. You're Mean 10:04
09. The Thrill Is Gone 05:26
Bonus Track:
10. Fools Get Wise 02:38

Отчёт ЕАС:

Код:
Exact Audio Copy V1.0 beta 3 from 29. August 2011
EAC extraction logfile from 29. January 2013, 21:47
B.B. King / Completely Well
Used drive  : PLEXTOR BD-R  PX-B950SA   Adapter: 6  ID: 0
Read mode               : Secure
Utilize accurate stream : Yes
Defeat audio cache      : Yes
Make use of C2 pointers : No
Read offset correction                      : 6
Overread into Lead-In and Lead-Out          : No
Fill up missing offset samples with silence : Yes
Delete leading and trailing silent blocks   : No
Null samples used in CRC calculations       : Yes
Used interface                              : Native Win32 interface for Win NT & 2000
Used output format : Internal WAV Routines
Sample format      : 44.100 Hz; 16 Bit; Stereo
TOC of the extracted CD
     Track |   Start  |  Length  | Start sector | End sector
    ---------------------------------------------------------
        1  |  0:00.00 |  5:37.43 |         0    |    25317
        2  |  5:37.43 |  4:37.59 |     25318    |    46151
        3  | 10:15.27 |  4:55.26 |     46152    |    68302
        4  | 15:10.53 |  4:43.43 |     68303    |    89570
        5  | 19:54.21 |  4:56.47 |     89571    |   111817
        6  | 24:50.68 |  3:20.72 |    111818    |   126889
        7  | 28:11.65 |  6:23.32 |    126890    |   155646
        8  | 34:35.22 | 10:04.34 |    155647    |   200980
        9  | 44:39.56 |  5:26.49 |    200981    |   225479
       10  | 50:06.30 |  2:38.36 |    225480    |   237365
Range status and errors
Selected range
     Filename C:\Users\Meijin\Desktop\Lossless Galaxy Rip by ALLexxess\BB King\1969 Completely Well (Universal Japan Mini LP SHM-CD 24bit Remaster 2012)\B.B. King - Completely Well.wav
     Peak level 100.0 %
     Extraction speed 7.2 X
     Range quality 100.0 %
     Test CRC 6456B6DC
     Copy CRC 6456B6DC
     Copy OK
No errors occurred
AccurateRip summary
Track  1  not present in database
Track  2  not present in database
Track  3  not present in database
Track  4  not present in database
Track  5  not present in database
Track  6  not present in database
Track  7  not present in database
Track  8  not present in database
Track  9  not present in database
Track 10  not present in database
None of the tracks are present in the AccurateRip database
End of status report
==== Log checksum 7595E96390837686A1D48596D8455922FEB4244FCC6C61CE63E181B5B9A6E44A ====

Отчёт auCDtect Task manager:

Код:
-----------------------
DON'T MODIFY THIS FILE
-----------------------
PERFORMER: auCDtect Task Manager, ver. 1.6.0 RC1 build 1.6.0.1
Copyright (c) 2008-2010 y-soft. All rights reserved
http://y-soft.org
ANALYZER: auCDtect: CD records authenticity detector, version 0.8.2
Copyright (c) 2004 Oleg Berngardt. All rights reserved.
Copyright (c) 2004 Alexander Djourik. All rights reserved.
FILE: B.B. King - Completely Well.flac
  Size: 316148379 Hash: C442F35D5FAEBC8E0952F4967DFE1A18 Accuracy: -m0
  Conclusion: CDDA 100%
  Signature: D0F14D61F56B8C9ACDCCBB1356F90A6C1AC27A9C

Спектральный анализ

       
       

1970 - Indianola Mississippi Seeds


Продолжительность: 00:39:29
Трек лист:
01. Nobody Loves Me But My Mother 01:27
02. You're Still My Woman 06:03
03. Ask Me No Questions 03:07
04. Until I'm Dead And Cold 04:44
05. King's Special 05:11
06. Ain't Gonna Worry My Life Anymore 05:19
07. Chains And Things 04:53
08. Go Underground 04:02
09. Hummingbird 04:38

Отчёт ЕАС:

Код:
Exact Audio Copy V1.0 beta 3 from 29. August 2011
EAC extraction logfile from 29. January 2013, 21:14
B.B. King / Indianola Mississippi Seeds
Used drive  : PLEXTOR BD-R  PX-B950SA   Adapter: 6  ID: 0
Read mode               : Secure
Utilize accurate stream : Yes
Defeat audio cache      : Yes
Make use of C2 pointers : No
Read offset correction                      : 6
Overread into Lead-In and Lead-Out          : No
Fill up missing offset samples with silence : Yes
Delete leading and trailing silent blocks   : No
Null samples used in CRC calculations       : Yes
Used interface                              : Native Win32 interface for Win NT & 2000
Used output format : Internal WAV Routines
Sample format      : 44.100 Hz; 16 Bit; Stereo
TOC of the extracted CD
     Track |   Start  |  Length  | Start sector | End sector
    ---------------------------------------------------------
        1  |  0:00.00 |  1:27.11 |         0    |     6535
        2  |  1:27.11 |  6:03.44 |      6536    |    33804
        3  |  7:30.55 |  3:07.72 |     33805    |    47901
        4  | 10:38.52 |  4:44.25 |     47902    |    69226
        5  | 15:23.02 |  5:11.74 |     69227    |    92625
        6  | 20:35.01 |  5:19.64 |     92626    |   116614
        7  | 25:54.65 |  4:53.38 |    116615    |   138627
        8  | 30:48.28 |  4:02.64 |    138628    |   156841
        9  | 34:51.17 |  4:37.57 |    156842    |   177673
Range status and errors
Selected range
     Filename C:\Users\Meijin\Desktop\Lossless Galaxy Rip by ALLexxess\BB King\1970 Indianola Mississippi Seeds (Universal Japan Mini LP SHM-CD 24bit Remaster 2012)\B.B. King - Indianola Mississippi Seeds.wav
     Peak level 100.0 %
     Extraction speed 6.7 X
     Range quality 100.0 %
     Test CRC 0D2377D8
     Copy CRC 0D2377D8
     Copy OK
No errors occurred
AccurateRip summary
Track  1  not present in database
Track  2  not present in database
Track  3  not present in database
Track  4  not present in database
Track  5  not present in database
Track  6  not present in database
Track  7  not present in database
Track  8  not present in database
Track  9  not present in database
None of the tracks are present in the AccurateRip database
End of status report
==== Log checksum CB6E14439178EE5CDCEDBC34ABBC5E5B4718B88935A0A5BE92724C745C48FD50 ====

Отчёт auCDtect Task manager:

Код:
-----------------------
DON'T MODIFY THIS FILE
-----------------------
PERFORMER: auCDtect Task Manager, ver. 1.6.0 RC1 build 1.6.0.1
Copyright (c) 2008-2010 y-soft. All rights reserved
http://y-soft.org
ANALYZER: auCDtect: CD records authenticity detector, version 0.8.2
Copyright (c) 2004 Oleg Berngardt. All rights reserved.
Copyright (c) 2004 Alexander Djourik. All rights reserved.
FILE: B.B. King - Indianola Mississippi Seeds.flac
  Size: 239793187 Hash: 6B8EC9A992EEA04BA41B2C9AA608AFE8 Accuracy: -m0
  Conclusion: CDDA 99%
  Signature: BF272513C8A31D7DA7226877887FCF393F9EAAD7

Спектральный анализ

       
       

1971 - In London


Продолжительность: 00:37:55
Трек лист:
01. Caldonia 03:59
02. Blue Shadows 05:09
03. Alexis' Boogie 03:29
04. We Can't Agree 04:48
05. Ghetto Woman 05:14
06. Wet Hayshark 02:28
07. Part-Time Love 03:15
08. Power Of The Blues 02:21
09. Ain't Nobody Home 03:16
Bonus Track:
10. May I Have A Talk With You 03:51

Отчёт ЕАС:

Код:
Exact Audio Copy V1.0 beta 3 from 29. August 2011
EAC extraction logfile from 29. January 2013, 20:49
B.B. King / In London
Used drive  : PLEXTOR BD-R  PX-B950SA   Adapter: 6  ID: 0
Read mode               : Secure
Utilize accurate stream : Yes
Defeat audio cache      : Yes
Make use of C2 pointers : No
Read offset correction                      : 6
Overread into Lead-In and Lead-Out          : No
Fill up missing offset samples with silence : Yes
Delete leading and trailing silent blocks   : No
Null samples used in CRC calculations       : Yes
Used interface                              : Native Win32 interface for Win NT & 2000
Used output format : Internal WAV Routines
Sample format      : 44.100 Hz; 16 Bit; Stereo
TOC of the extracted CD
     Track |   Start  |  Length  | Start sector | End sector
    ---------------------------------------------------------
        1  |  0:00.00 |  3:59.23 |         0    |    17947
        2  |  3:59.23 |  5:09.26 |     17948    |    41148
        3  |  9:08.49 |  3:29.34 |     41149    |    56857
        4  | 12:38.08 |  4:48.32 |     56858    |    78489
        5  | 17:26.40 |  5:14.67 |     78490    |   102106
        6  | 22:41.32 |  2:28.09 |    102107    |   113215
        7  | 25:09.41 |  3:15.56 |    113216    |   127896
        8  | 28:25.22 |  2:21.14 |    127897    |   138485
        9  | 30:46.36 |  3:16.68 |    138486    |   153253
       10  | 34:03.29 |  3:51.20 |    153254    |   170598
Range status and errors
Selected range
     Filename C:\Users\Meijin\Desktop\Lossless Galaxy Rip by ALLexxess\BB King\1971 In London (Universal Japan Mini LP SHM-CD 24bit Remaster 2012)\B.B. King - In London.wav
     Peak level 100.0 %
     Extraction speed 6.6 X
     Range quality 100.0 %
     Test CRC A78602B8
     Copy CRC A78602B8
     Copy OK
No errors occurred
AccurateRip summary
Track  1  not present in database
Track  2  not present in database
Track  3  not present in database
Track  4  not present in database
Track  5  not present in database
Track  6  not present in database
Track  7  not present in database
Track  8  not present in database
Track  9  not present in database
Track 10  not present in database
None of the tracks are present in the AccurateRip database
End of status report
==== Log checksum E058E9DF069361A073759A13EAFA5D26FBB7B975EF2D80C61897CBFFAD28E896 ====

Отчёт auCDtect Task manager:

Код:
-----------------------
DON'T MODIFY THIS FILE
-----------------------
PERFORMER: auCDtect Task Manager, ver. 1.6.0 RC1 build 1.6.0.1
Copyright (c) 2008-2010 y-soft. All rights reserved
http://y-soft.org
ANALYZER: auCDtect: CD records authenticity detector, version 0.8.2
Copyright (c) 2004 Oleg Berngardt. All rights reserved.
Copyright (c) 2004 Alexander Djourik. All rights reserved.
FILE: B.B. King - In London.flac
  Size: 223318165 Hash: 37ACEF05E14B11EC39CFACE2A30F8F85 Accuracy: -m0
  Conclusion: CDDA 100%
  Signature: 15BCA602E99450B29B109CF820726B535A294B7F

Спектральный анализ

       
       

1971 - Live In Cook County Jail


Продолжительность: 00:38:54
Трек лист:
01. Introduction 01:52
02. Everyday I Have The Blues 01:42
03. How Blues Can You Get 05:12
04. Worry, Worry, Worry 09:56
05. 3 O'Clock Blues / Darlin' You Know I Love You 06:17
06. Sweet Sixteen 04:22
07. The Thrill Is Gone 05:28
08. Please Accept My Love 04:01

Отчёт ЕАС:

Код:
Exact Audio Copy V1.0 beta 3 from 29. August 2011
EAC extraction logfile from 29. January 2013, 20:15
B.B. King / Live In Cook County Jail
Used drive  : PLEXTOR BD-R  PX-B950SA   Adapter: 6  ID: 0
Read mode               : Secure
Utilize accurate stream : Yes
Defeat audio cache      : Yes
Make use of C2 pointers : No
Read offset correction                      : 6
Overread into Lead-In and Lead-Out          : No
Fill up missing offset samples with silence : Yes
Delete leading and trailing silent blocks   : No
Null samples used in CRC calculations       : Yes
Used interface                              : Native Win32 interface for Win NT & 2000
Used output format : Internal WAV Routines
Sample format      : 44.100 Hz; 16 Bit; Stereo
TOC of the extracted CD
     Track |   Start  |  Length  | Start sector | End sector
    ---------------------------------------------------------
        1  |  0:00.00 |  1:52.31 |         0    |     8430
        2  |  1:52.31 |  1:42.51 |      8431    |    16131
        3  |  3:35.07 |  5:12.24 |     16132    |    39555
        4  |  8:47.31 |  9:56.72 |     39556    |    84327
        5  | 18:44.28 |  6:17.05 |     84328    |   112607
        6  | 25:01.33 |  4:22.55 |    112608    |   132312
        7  | 29:24.13 |  5:28.52 |    132313    |   156964
        8  | 34:52.65 |  4:01.34 |    156965    |   175073
Range status and errors
Selected range
     Filename C:\Users\Meijin\Desktop\Lossless Galaxy Rip by ALLexxess\BB King\1971 Live In Cook County Jail (Universal Japan Mini LP SHM-CD 24bit Remaster 2012)\B.B. King - Live In Cook County Jail.wav
     Peak level 100.0 %
     Extraction speed 6.5 X
     Range quality 99.9 %
     Test CRC AEA8C17D
     Copy CRC AEA8C17D
     Copy OK
No errors occurred
AccurateRip summary
Track  1  not present in database
Track  2  not present in database
Track  3  not present in database
Track  4  not present in database
Track  5  not present in database
Track  6  not present in database
Track  7  not present in database
Track  8  not present in database
None of the tracks are present in the AccurateRip database
End of status report
==== Log checksum 6494A452D346574E01A20689EF16048367206E49CABB0BD31C6384FAC792065A ====

Отчёт auCDtect Task manager:

Код:
-----------------------
DON'T MODIFY THIS FILE
-----------------------
PERFORMER: auCDtect Task Manager, ver. 1.6.0 RC1 build 1.6.0.1
Copyright (c) 2008-2010 y-soft. All rights reserved
http://y-soft.org
ANALYZER: auCDtect: CD records authenticity detector, version 0.8.2
Copyright (c) 2004 Oleg Berngardt. All rights reserved.
Copyright (c) 2004 Alexander Djourik. All rights reserved.
FILE: B.B. King - Live In Cook County Jail.flac
  Size: 218184045 Hash: 8D2D1575B7EBCF9AF963F5CF599392F2 Accuracy: -m0
  Conclusion: CDDA 99%
  Signature: 97D32F861EE59D3206A9297709A9CD4DCD4DAAEA

Спектральный анализ

       
       

1971 - Live In Japan


Продолжительность: 01:16:54
Трек лист:
01. Every Day I Have The Blues 02:10
02. How Blue Can You Get? 05:26
03. Eyesight To The Blind 04:29
04. Niji Baby 05:52
05. You're Still My Woman 05:58
06. Chains And Things 05:43
07. Sweet Sixteen 06:02
08. Hummingbird 04:08
09. Darlin' You Know I Love You 04:25
10. Japanese Boogie 09:17
11. Jamming At Sankei Hall 09:38
12. The Thrill Is Gone 05:39
13. Hikari #88 08:00

Отчёт ЕАС:

Код:
Exact Audio Copy V1.0 beta 3 from 29. August 2011
EAC extraction logfile from 29. January 2013, 19:49
B.B. King / Live In Japan
Used drive  : PLEXTOR BD-R  PX-B950SA   Adapter: 6  ID: 0
Read mode               : Secure
Utilize accurate stream : Yes
Defeat audio cache      : Yes
Make use of C2 pointers : No
Read offset correction                      : 6
Overread into Lead-In and Lead-Out          : No
Fill up missing offset samples with silence : Yes
Delete leading and trailing silent blocks   : No
Null samples used in CRC calculations       : Yes
Used interface                              : Native Win32 interface for Win NT & 2000
Used output format : Internal WAV Routines
Sample format      : 44.100 Hz; 16 Bit; Stereo
TOC of the extracted CD
     Track |   Start  |  Length  | Start sector | End sector
    ---------------------------------------------------------
        1  |  0:00.00 |  2:10.46 |         0    |     9795
        2  |  2:10.46 |  5:26.32 |      9796    |    34277
        3  |  7:37.03 |  4:29.06 |     34278    |    54458
        4  | 12:06.09 |  5:52.45 |     54459    |    80903
        5  | 17:58.54 |  5:58.28 |     80904    |   107781
        6  | 23:57.07 |  5:43.58 |    107782    |   133564
        7  | 29:40.65 |  6:02.40 |    133565    |   160754
        8  | 35:43.30 |  4:08.15 |    160755    |   179369
        9  | 39:51.45 |  4:25.71 |    179370    |   199315
       10  | 44:17.41 |  9:17.72 |    199316    |   241162
       11  | 53:35.38 |  9:38.60 |    241163    |   284572
       12  | 63:14.23 |  5:39.08 |    284573    |   310005
       13  | 68:53.31 |  8:00.19 |    310006    |   346024
Range status and errors
Selected range
     Filename C:\Users\Meijin\Desktop\Lossless Galaxy Rip by ALLexxess\BB King\1971 Live In Japan (Universal Japan Mini LP SHM-CD 24bit Remaster 2012)\B.B. King - Live In Japan.wav
     Peak level 100.0 %
     Extraction speed 8.7 X
     Range quality 100.0 %
     Test CRC 04F8BE04
     Copy CRC 04F8BE04
     Copy OK
No errors occurred
AccurateRip summary
Track  1  not present in database
Track  2  not present in database
Track  3  not present in database
Track  4  not present in database
Track  5  not present in database
Track  6  not present in database
Track  7  not present in database
Track  8  not present in database
Track  9  not present in database
Track 10  not present in database
Track 11  not present in database
Track 12  not present in database
Track 13  not present in database
None of the tracks are present in the AccurateRip database
End of status report
==== Log checksum 5D63AEF24A8F0828583BEDD64D9E0BB322849DDCB06EB33E380475C731869588 ====

Отчёт auCDtect Task manager:

Код:
-----------------------
DON'T MODIFY THIS FILE
-----------------------
PERFORMER: auCDtect Task Manager, ver. 1.6.0 RC1 build 1.6.0.1
Copyright (c) 2008-2010 y-soft. All rights reserved
http://y-soft.org
ANALYZER: auCDtect: CD records authenticity detector, version 0.8.2
Copyright (c) 2004 Oleg Berngardt. All rights reserved.
Copyright (c) 2004 Alexander Djourik. All rights reserved.
FILE: B.B. King - Live In Japan.flac
  Size: 509724303 Hash: E4BC590F07C6F713BC92E76EA3B171AD Accuracy: -m0
  Conclusion: CDDA 100%
  Signature: DB6114D1ACF7B41DFFB684C8412AFC7FFC15A576

Спектральный анализ

       
       

1974 - Together For The First Time... Live / B.B. King & Bobby Bland


Продолжительность: 01:08:00
Трек лист:
01. Introduction / 3 O'Clock In The Morning 03:23
02. It's My Own Fault Baby 04:11
03. Driftin' Blues 05:05
04. That's The Way Love Is 03:50
05. I'm Sorry 09:49
06. I'll Take Care Of You 03:36
07. Don't Cry No More 02:48
08. Don't Want A Soul Hangin' Around 03:49
09. Medley 13:56
a) Good To Be Back Home
b) Driving Wheel
c) Rock Me Baby
d) Black Night
e) Cherry Red
f) It's My Own Fault Baby
g) 3 O'Clock In The Morning
h) Oh, Comee Back Baby
i) Chains Of Love
j) Gonna Get Me An Old Woman
10. Everybody Wants To Know Why I Sing The Blues 06:15
11. Goin' Down Slow 05:11
12. I Like To Live The Love 06:00

Отчёт ЕАС:

Код:
Exact Audio Copy V1.0 beta 3 from 29. August 2011
EAC extraction logfile from 29. January 2013, 15:22
B.B. King & Bobby Bland / Together For The First Time... Live
Used drive  : PLEXTOR BD-R  PX-B950SA   Adapter: 6  ID: 0
Read mode               : Secure
Utilize accurate stream : Yes
Defeat audio cache      : Yes
Make use of C2 pointers : No
Read offset correction                      : 6
Overread into Lead-In and Lead-Out          : No
Fill up missing offset samples with silence : Yes
Delete leading and trailing silent blocks   : No
Null samples used in CRC calculations       : Yes
Used interface                              : Native Win32 interface for Win NT & 2000
Used output format : Internal WAV Routines
Sample format      : 44.100 Hz; 16 Bit; Stereo
TOC of the extracted CD
     Track |   Start  |  Length  | Start sector | End sector
    ---------------------------------------------------------
        1  |  0:00.00 |  3:23.62 |         0    |    15286
        2  |  3:23.62 |  4:11.74 |     15287    |    34185
        3  |  7:35.61 |  5:05.66 |     34186    |    57126
        4  | 12:41.52 |  3:50.30 |     57127    |    74406
        5  | 16:32.07 |  9:49.05 |     74407    |   118586
        6  | 26:21.12 |  3:36.32 |    118587    |   134818
        7  | 29:57.44 |  2:48.66 |    134819    |   147484
        8  | 32:46.35 |  3:49.20 |    147485    |   164679
        9  | 36:35.55 | 13:56.49 |    164680    |   227428
       10  | 50:32.29 |  6:15.69 |    227429    |   255622
       11  | 56:48.23 |  5:11.21 |    255623    |   278968
       12  | 61:59.44 |  6:00.00 |    278969    |   305968
Range status and errors
Selected range
     Filename C:\Users\Meijin\Desktop\Lossless Galaxy Rip by ALLexxess\BB King\1974 Together For The First Time... Live (Universal Japan Mini LP SHM-CD 24bit Remaster 2012)\B.B. King & Bobby Bland - Together For The First Time... Live.wav
     Peak level 100.0 %
     Extraction speed 8.3 X
     Range quality 99.9 %
     Test CRC 9F0C544B
     Copy CRC 9F0C544B
     Copy OK
No errors occurred
AccurateRip summary
Track  1  not present in database
Track  2  not present in database
Track  3  not present in database
Track  4  not present in database
Track  5  not present in database
Track  6  not present in database
Track  7  not present in database
Track  8  not present in database
Track  9  not present in database
Track 10  not present in database
Track 11  not present in database
Track 12  not present in database
None of the tracks are present in the AccurateRip database
End of status report
==== Log checksum 73CC98AC891E2AAFA85516BDFD9CC2459BDFEAA030D1692D56AEED25B8B21408 ====

Отчёт auCDtect Task manager:

Код:
-----------------------
DON'T MODIFY THIS FILE
-----------------------
PERFORMER: auCDtect Task Manager, ver. 1.6.0 RC1 build 1.6.0.1
Copyright (c) 2008-2010 y-soft. All rights reserved
http://y-soft.org
ANALYZER: auCDtect: CD records authenticity detector, version 0.8.2
Copyright (c) 2004 Oleg Berngardt. All rights reserved.
Copyright (c) 2004 Alexander Djourik. All rights reserved.
FILE: B.B. King & Bobby Bland - Together For The First Time... Live.flac
  Size: 435737769 Hash: 122B8A25585F34388002F980A5ECC570 Accuracy: -m0
  Conclusion: CDDA 100%
  Signature: F332162EA7C20611AB172C9FA2DC0B901B215E4F

Спектральный анализ

       
       

1978 - Midnight Believer


Продолжительность: 00:33:09
Трек лист:
01. When It All Comes Down (I'll Still Be Around) 04:11
02. Midnight Believer 04:58
03. I Just Can't Leave Your Love Alone 04:16
04. Hold On (I Feel Our Love Is Changing) 04:07
05. Never Make A Move Too Soon 05:27
06. A World Full Of Strangers 04:20
07. Let Me Make You Cry A Little Bit Longer 05:45

Отчёт ЕАС:

Код:
Exact Audio Copy V1.0 beta 3 from 29. August 2011
EAC extraction logfile from 29. January 2013, 14:46
B.B. King / Midnight Believer
Used drive  : PLEXTOR BD-R  PX-B950SA   Adapter: 6  ID: 0
Read mode               : Secure
Utilize accurate stream : Yes
Defeat audio cache      : Yes
Make use of C2 pointers : No
Read offset correction                      : 6
Overread into Lead-In and Lead-Out          : No
Fill up missing offset samples with silence : Yes
Delete leading and trailing silent blocks   : No
Null samples used in CRC calculations       : Yes
Used interface                              : Native Win32 interface for Win NT & 2000
Used output format : Internal WAV Routines
Sample format      : 44.100 Hz; 16 Bit; Stereo
TOC of the extracted CD
     Track |   Start  |  Length  | Start sector | End sector
    ---------------------------------------------------------
        1  |  0:00.00 |  4:11.55 |         0    |    18879
        2  |  4:11.55 |  4:58.22 |     18880    |    41251
        3  |  9:10.02 |  4:16.69 |     41252    |    60520
        4  | 13:26.71 |  4:07.33 |     60521    |    79078
        5  | 17:34.29 |  5:27.51 |     79079    |   103654
        6  | 23:02.05 |  4:20.70 |    103655    |   123224
        7  | 27:23.00 |  5:45.10 |    123225    |   149109
Range status and errors
Selected range
     Filename C:\Users\Meijin\Desktop\Lossless Galaxy Rip by ALLexxess\BB King\1978 Midnight Believer (Universal Japan Mini LP SHM-CD 24bit Remaster 2012)\B.B. King - Midnight Believer.wav
     Peak level 100.0 %
     Extraction speed 6.4 X
     Range quality 100.0 %
     Test CRC DED09DED
     Copy CRC DED09DED
     Copy OK
No errors occurred
AccurateRip summary
Track  1  not present in database
Track  2  not present in database
Track  3  not present in database
Track  4  not present in database
Track  5  not present in database
Track  6  not present in database
Track  7  not present in database
None of the tracks are present in the AccurateRip database
End of status report
==== Log checksum 4C151629A14A04206157463A732F8880C903895A30F3B1CD5F64CDFAD16B5A3A ====

Отчёт auCDtect Task manager:

Код:
-----------------------
DON'T MODIFY THIS FILE
-----------------------
PERFORMER: auCDtect Task Manager, ver. 1.6.0 RC1 build 1.6.0.1
Copyright (c) 2008-2010 y-soft. All rights reserved
http://y-soft.org
ANALYZER: auCDtect: CD records authenticity detector, version 0.8.2
Copyright (c) 2004 Oleg Berngardt. All rights reserved.
Copyright (c) 2004 Alexander Djourik. All rights reserved.
FILE: B.B. King - Midnight Believer.flac
  Size: 188489197 Hash: 18CF784F502F87B865B9797D53750AD5 Accuracy: -m0
  Conclusion: CDDA 43%
  Signature: 2EF22038BAE01210B193B0A6853F909E40F07009

Спектральный анализ

         
       

Дополнительная информация

Geffen Records / Universal Music Japan
Cardboard Sleeve (mini LP) / SHM-CD / Limited Release
Remaster 2012
Catalog CDs: UICY-94836/47
Made in Japan
Dynamic Range: 10 / 10 / 10 / 12 / 12 / 11 / 12 / 12 / 12 / 10 / 12 / 12
Время раздачи: 24/7
Other forum [Profile] [PM]

Dracula

Longevity: 6 years 1 month

Posts: 10710

Торрент-статистика

Post 25-May-2013 07:32 (after 7 hours)

Топик был перенесен из форума Jazz в форум Музыка других жанров


p2000s
 
Display posts from previous:    
Reply to topic

The time now is: Today 14:19

All times are GMT + 3 Hours



You cannot post new topics in this forum
You cannot reply to topics in this forum
You cannot edit your posts in this forum
You cannot delete your posts in this forum
You cannot vote in polls in this forum
You cannot attach files in this forum
You cannot download files in this forum