Сегодня идет свободное скачивание без начисления Download

Спецагент Арчер / Archer (2013) (4 сезон, серий 9 из 13) WEB-DLRip (NewStudio) (обновляемая)

Ответить на тему
 
Автор
Сообщение

UndegraundMen ®

Стаж: 4 года 9 месяцев

Сообщений: 26429

Торрент-статистика

Пост 25-Май-2013 00:03

[Цитировать]

Спецагент Арчер / Archer (2013) WEB-DLRip- Русское название: Спецагент Арчер
Оригинальное название: Archer
Сезон: 4 (Четвертый)
Год выпуска: 2013
Жанр: Мультфильм, боевик, комедия, для взрослых (ненормативная лексика)
Выпущено: США, FX Network, Floyd County Productions
Режиссер: Адам Рид, Брайан Фордни
Персонажи: Х. Джон Бенжамин, Джуди Грир, Эмбер Нэш, Крис Парнелл, Аиша Тайлер, Джессика Уолтер, Адам Рид
Описание фильма:
В международном шпионском агентстве ISIS любой мировой кризис - лишь предлог для высококлассных секретных агентов посоревноваться между собой в обмане и предательстве. Главным героем мультсериала является спецагент Стерлинг Арчер, известный также под кодовым именем «Герцогиня». На службе Арчеру приходится мириться со своей эксцентричной мамашей/начальницей - Мэлори, бывшей подружкой Ланой, озабоченной секретаршей Шерил и другими «интересными личностями».
Продолжительность: 9 х ~ 00:21:00
Перевод: Многоголосый закадровый, профессиональный
Озвучка / Автор перевода: студия "NewStudio.TV"

Видеокодек: XviD
Битрейт видео: ~1530 Кбит/сек
Размер кадра: 720 х 400
Качество видео: WEB-DLRip
Аудиокодек: MP3 2.0
Битрейт аудио: 192 Кбит/сек

Список серий (4 сезон)

01 Fugue and Riffs | Беспамятное Бегство
02 The Wind Cries Mary | Ветер Зовёт Мэри
03 Legs | Ноги
04 Midnight Ron | Тёмное Прошлое Рона
05 Vicious Coupling | Порочная Связь
06 Once Bitten | Однажды Укушенный
07 Live and Let Dine | Ужин в Прямом Эфире
08 Coyote Lovely | Охота на Койота
09 The Honeymooners | Новобрачные
10 Un Chien Tangerine
11 The Papal Chase
12 Sea Tunt: Part I
13 Sea Tunt: Part II

Дополнительная информация

Озвучка: Руслан Габидуллин, Константин Погодаев, Ольга Кравцова, Анна Тух (Кубик в кубе & Бяко Рекордс)
Перевод: Opel
Подготовка видео: Koss
Работа со звуком: Cherry

Техданные

Общее
Полное имя : \Archer.04.season.2013.WEB-DLRip.NewStudio.TV\archer.2009.s04e01.webdlrip_NewStudio.TV.avi
Формат : AVI
Формат/Информация : Audio Video Interleave
Размер файла : 294 Мбайт
Продолжительность : 21 м.
Общий поток : 1929 Кбит/сек
Программа кодирования : VirtualDubMod 1.5.10.2 (build 2542/release)
Библиотека кодирования : VirtualDubMod build 2542/release
Видео
Идентификатор : 0
Формат : MPEG-4 Visual
Профиль формата : Advanced Simple@L5
Параметр BVOP формата : 2
Параметр QPel формата : Нет
Параметр GMC формата : Без точки перехода
Параметр матрицы формата : Default (MPEG)
Идентификатор кодека : XVID
Идентификатор кодека/Подсказка : XviD
Продолжительность : 21 м.
Битрейт : 1531 Кбит/сек
Ширина : 720 пикселей
Высота : 400 пикселей
Соотношение сторон : 16:9
Частота кадров : 23,976 кадра/сек
Цветовое пространство : YUV
Субдискретизация насыщенности : 4:2:0
Битовая глубина : 8 бит
Тип развёртки : Прогрессивная
Метод сжатия : С потерями
Бит/(Пиксели*Кадры) : 0.222
Размер потока : 233 Мбайт (79%)
Библиотека кодирования : XviD 65
Аудио #1
Идентификатор : 1
Формат : MPEG Audio
Версия формата : Version 1
Профиль формата : Layer 3
Режим : Joint stereo
Идентификатор кодека : 55
Идентификатор кодека/Подсказка : MP3
Продолжительность : 21 м.
Вид битрейта : Постоянный
Битрейт : 192 Кбит/сек
Каналы : 2 канала
Частота : 48,0 КГц
Метод сжатия : С потерями
Размер потока : 29,2 Мбайт (10%)
Выравнивание : Соединение по промежуткам
Продолжительность промежутка : 42 мс. (1,00 видеокадр)
Время предзагрузки промежутка : 504 мс.
Аудио #2
Идентификатор : 2
Формат : MPEG Audio
Версия формата : Version 1
Профиль формата : Layer 3
Режим : Joint stereo
Идентификатор кодека : 55
Идентификатор кодека/Подсказка : MP3
Продолжительность : 21 м.
Вид битрейта : Постоянный
Битрейт : 192 Кбит/сек
Каналы : 2 канала
Частота : 48,0 КГц
Метод сжатия : С потерями
Размер потока : 29,2 Мбайт (10%)
Выравнивание : Соединение по промежуткам
Продолжительность промежутка : 42 мс. (1,00 видеокадр)
Время предзагрузки промежутка : 504 мс.
Библиотека кодирования : LAME3.99r
Настройки программы : -m j -V 4 -q 2 -lowpass 18.6 -b 192

Внимание! Раздача ведётся путём добавления новых серий

Внимание! Раздача ведётся путём добавления новых серий; при каждом добавлении создаётся новый торрент.
Чтобы начать докачку новой серии, пользователям необходимо сделать следующее:
(1) остановить скачивание;
(2) удалить старый торрент у себя из клиента (старые серии удалять не надо);
(3) скачать новый торрент и запустить его у себя в клиенте вместо старого, при этом указать клиенту путь в старую папку куда и должно происходить скачивание новых серий. Ваш клиент при этом должен произвести хеширование (проверку) старой папки (если не производит сам - помогите ему сделать это), и будет докачивать только те серии, которых у вас ещё нет. Старые серии при этом не удаляются, а продолжают раздаваться! Eсли вы уже удалили старые серии, то предотвратить повторную закачку старых серий можно, отжав галочку в соответствующих местах при запуске нового торрента.
Кадры:          Время раздачи: С 13:00 до 21:00 (до 5 скачавших)Приятного просмотра!
Вне форума [Профиль] [ЛС]

Dracula

Стаж: 4 года 1 месяц

Сообщений: 10086

Торрент-статистика

Пост 25-Май-2013 14:33 (спустя 14 часов)

Топик был перенесен из форума Обучающее видео в форум Мультсериалы


RUGUI
 
Показать сообщения:    
Ответить на тему

Текущее время: Сегодня 14:04

Часовой пояс: GMT + 3



Вы не можете начинать темы
Вы не можете отвечать на сообщения
Вы не можете редактировать свои сообщения
Вы не можете удалять свои сообщения
Вы не можете голосовать в опросах
Вы не можете прикреплять файлы к сообщениям
Вы не можете скачивать файлы