Today is a free download without charge Download

Black Cat Bone - Some Grace (2013) [FLAC|Lossless]

Reply to topic
 
Author
Message

UndegraundMen ®

Longevity: 6 years 10 months

Posts: 25145

Торрент-статистика

Post 24-May-2013 00:03

[Quote]

Black Cat Bone - Some Grace (2013)- Год: 2013
Жанр: Blues, Harmonica
Продолжительность: 00:42:58
Кодек: FLAC
Битрейт: Lossless
Трек лист:
01. Tell Me Tell Me 03:09
02. Best Dress 04:30
03. My Mistake 04:25
04. Jelly Beans Daddy 05:27
05. Love Her With a Feeling 05:00
06. Muder in the First Degree 04:18
07. Barrel House T and the Ocean Breeze 01:56
08. Hey Little Girl 03:30
09. Hey Bartender 04:53
10. Long Way Home 03:31
11. Some Grace 02:14

Отчёт ЕАС:

Код:
Exact Audio Copy V0.99 prebeta 5 from 4. May 2009
Отчёт EAC об извлечении, выполненном 21. апреля 2013, 14:45
Black Cat Bone / Some Grace
Дисковод: PLEXTOR DVDR   PX-880SA   Adapter: 1  ID: 0
Режим чтения                 : Достоверность
Использование точного потока : Да
Отключение кэша аудио        : Да
Использование указателей C2  : Нет
Коррекция смещения при чтении                     : 6
Способность читать области Lead-in и Lead-out     : Нет
Заполнение пропущенных сэмплов тишиной            : Да
Удаление блоков с тишиной в начале и конце        : Нет
При вычислениях CRC использовались нулевые сэмплы : Да
Интерфейс                                         : Установленный внешний ASPI-интерфейс
Выходной формат          : Пользовательский кодировщик
Выбранный битрейт        : 1024 kBit/s
Качество                 : Высокий
Добавление ID3-тэга      : Нет
Утилита сжатия           : C:\Program Files\Exact Audio Copy\FLAC\FLAC.EXE
Дополнительные параметры : -10 -V -T "ARTIST=%a" -T "TITLE=%t" -T "ALBUM=%g" -T "DATE=%y" -T "TRACKNUMBER=%n" -T "GENRE=%m" -T "COMMENT=%e" %s -o %d
TOC извлечённого CD
     Трек |   Старт  | Длительность | Начальный сектор | Конечный сектор
    ---------------------------------------------------------------------
       1  |  0:00.00 |    3:09.29   |           0      |      14203
       2  |  3:09.29 |    4:30.71   |       14204      |      34524
       3  |  7:40.25 |    4:25.73   |       34525      |      54472
       4  | 12:06.23 |    5:27.42   |       54473      |      79039
       5  | 17:33.65 |    5:00.02   |       79040      |     101541
       6  | 22:33.67 |    4:18.21   |      101542      |     120912
       7  | 26:52.13 |    1:56.35   |      120913      |     129647
       8  | 28:48.48 |    3:30.70   |      129648      |     145467
       9  | 32:19.43 |    4:53.22   |      145468      |     167464
      10  | 37:12.65 |    3:31.12   |      167465      |     183301
      11  | 40:44.02 |    2:14.29   |      183302      |     193380
Характеристики диапазона извлечения и сообщения об ошибках
Выбранный диапазон
     Имя файла D:\BitComet\Black Cat Bone - Some Grace(2013)(flac)\Black Cat Bone - Some Grace.wav
     Пиковый уровень 96.4 %
     Качество диапазона 100.0 %
     CRC теста D8939407
     CRC копии D8939407
     Копирование... OK
Ошибок не произошло
AccurateRip: сводка
Трек  1  нет в базе данных
Трек  2  нет в базе данных
Трек  3  нет в базе данных
Трек  4  нет в базе данных
Трек  5  нет в базе данных
Трек  6  нет в базе данных
Трек  7  нет в базе данных
Трек  8  нет в базе данных
Трек  9  нет в базе данных
Трек 10  нет в базе данных
Трек 11  нет в базе данных
Ни одного трека нет в базе AccurateRip
Конец отчёта

Отчёт auCDtect Task manager:

Код:
-----------------------
DON'T MODIFY THIS FILE
-----------------------
PERFORMER: auCDtect Task Manager, ver. 1.5.1RC6 build 1.5.1.7
Copyright (c) 2008-2010 y-soft. All rights reserved
http://y-soft.org
ANALYZER: auCDtect: CD records authenticity detector, version 0.8.2
Copyright (c) 2004 Oleg Berngardt. All rights reserved.
Copyright (c) 2004 Alexander Djourik. All rights reserved.
FILE: Black Cat Bone - Some Grace.flac
  Size: 269153145 Hash: BD91719668CF215E29EE8A4B9EC6B430 Accuracy: -m0
  Conclusion: CDDA 100%
  Signature: F695329DCCA1B8FBB372E0BA104CB29CF8144CBF
Other forum [Profile] [PM]
Display posts from previous:    
Reply to topic

The time now is: Today 05:24

All times are GMT + 3 Hours



You cannot post new topics in this forum
You cannot reply to topics in this forum
You cannot edit your posts in this forum
You cannot delete your posts in this forum
You cannot vote in polls in this forum
You cannot attach files in this forum
You cannot download files in this forum